999
dxfrw 0.6.3
  0
SECTION
  2
HEADER
  9
$ACADVER
  1
AC1021
  9
$DWGCODEPAGE
  3
ANSI_1252
  9
$INSBASE
 10
0
 20
0
 30
0
  9
$EXTMIN
 10
24.598504128
 20
12.02608944000001
 30
0
  9
$EXTMAX
 10
337.598504128
 20
243.125
 30
0
  9
$LIMMIN
 10
0
 20
0
  9
$LIMMAX
 10
420
 20
297
  9
$ORTHOMODE
 70
    0
  9
$REGENMODE
 70
    1
  9
$FILLMODE
 70
    1
  9
$QTEXTMODE
 70
    0
  9
$MIRRTEXT
 70
    0
  9
$LTSCALE
 40
1
  9
$ATTMODE
 70
    0
  9
$TEXTSIZE
 40
2.5
  9
$TRACEWID
 40
15.68
  9
$TEXTSTYLE
  7
STANDARD
  9
$CLAYER
  8
Gravur
  9
$CELTYPE
  6
BYLAYER
  9
$CECOLOR
 62
  256
  9
$CELTSCALE
 40
1
  9
$DISPSILH
 70
    0
  9
$DIMSCALE
 40
1
  9
$DIMASZ
 40
2.5
  9
$DIMEXO
 40
0.625
  9
$DIMDLI
 40
3.75
  9
$DIMRND
 40
0
  9
$DIMDLE
 40
0
  9
$DIMEXE
 40
1.25
  9
$DIMTP
 40
0
  9
$DIMTM
 40
0
  9
$DIMTXT
 40
2.5
  9
$DIMCEN
 40
2.5
  9
$DIMTSZ
 40
0
  9
$DIMTOL
 70
    0
  9
$DIMLIM
 70
    0
  9
$DIMTIH
 70
    0
  9
$DIMTOH
 70
    0
  9
$DIMSE1
 70
    0
  9
$DIMSE2
 70
    0
  9
$DIMTAD
 70
    1
  9
$DIMZIN
 70
    1
  9
$DIMBLK
  1

  9
$DIMASO
 70
    1
  9
$DIMSHO
 70
    1
  9
$DIMPOST
  1

  9
$DIMAPOST
  1

  9
$DIMALT
 70
    0
  9
$DIMALTD
 70
    3
  9
$DIMALTF
 40
0.03937
  9
$DIMLFAC
 40
1
  9
$DIMTOFL
 70
    1
  9
$DIMTVP
 40
0
  9
$DIMTIX
 70
    0
  9
$DIMSOXD
 70
    0
  9
$DIMSAH
 70
    0
  9
$DIMBLK1
  1

  9
$DIMBLK2
  1

  9
$DIMSTYLE
  2
Standard
  9
$DIMCLRD
 70
    0
  9
$DIMCLRE
 70
    0
  9
$DIMCLRT
 70
    0
  9
$DIMTFAC
 40
1
  9
$DIMGAP
 40
0.625
  9
$DIMJUST
 70
    0
  9
$DIMSD1
 70
    0
  9
$DIMSD2
 70
    0
  9
$DIMTOLJ
 70
    0
  9
$DIMTZIN
 70
    8
  9
$DIMALTZ
 70
    0
  9
$DIMALTTZ
 70
    0
  9
$DIMUPT
 70
    0
  9
$DIMDEC
 70
    2
  9
$DIMTDEC
 70
    2
  9
$DIMALTU
 70
    2
  9
$DIMALTTD
 70
    3
  9
$DIMTXSTY
  7
standard
  9
$DIMAUNIT
 70
    0
  9
$DIMADEC
 70
    2
  9
$DIMALTRND
 40
0
  9
$DIMAZIN
 70
    0
  9
$DIMDSEP
 70
    0
  9
$DIMATFIT
 70
    3
  9
$DIMFRAC
 70
    0
  9
$DIMLDRBLK
  1
STANDARD
  9
$DIMLUNIT
 70
    2
  9
$DIMLWD
 70
   -2
  9
$DIMLWE
 70
   -2
  9
$DIMTMOVE
 70
    0
  9
$DIMFXL
 40
1
  9
$DIMFXLON
 70
    0
  9
$DIMJOGANG
 40
0.7854
  9
$DIMTFILL
 70
    0
  9
$DIMTFILLCLR
 70
    0
  9
$DIMARCSYM
 70
    0
  9
$DIMLTYPE
  6

  9
$DIMLTEX1
  6

  9
$DIMLTEX2
  6

  9
$LUNITS
 70
    2
  9
$LUPREC
 70
    2
  9
$SKETCHINC
 40
1
  9
$FILLETRAD
 40
0
  9
$AUNITS
 70
    0
  9
$AUPREC
 70
    2
  9
$MENU
  1
.
  9
$ELEVATION
 40
0
  9
$PELEVATION
 40
0
  9
$THICKNESS
 40
0
  9
$LIMCHECK
 70
    0
  9
$CHAMFERA
 40
0
  9
$CHAMFERB
 40
0
  9
$CHAMFERC
 40
0
  9
$CHAMFERD
 40
0
  9
$SKPOLY
 70
    0
  9
$USRTIMER
 70
    1
  9
$ANGBASE
 50
0
  9
$ANGDIR
 70
    0
  9
$PDMODE
 70
   34
  9
$PDSIZE
 40
0
  9
$PLINEWID
 40
0
  9
$SPLFRAME
 70
    0
  9
$SPLINETYPE
 70
    2
  9
$SPLINESEGS
 70
    8
  9
$HANDSEED
  5
20000
  9
$SURFTAB1
 70
    6
  9
$SURFTAB2
 70
    6
  9
$SURFTYPE
 70
    6
  9
$SURFU
 70
    6
  9
$SURFV
 70
    6
  9
$UCSBASE
  2

  9
$UCSNAME
  2

  9
$UCSORG
 10
0
 20
0
 30
0
  9
$UCSXDIR
 10
1
 20
0
 30
0
  9
$UCSYDIR
 10
0
 20
1
 30
0
  9
$UCSORTHOREF
  2

  9
$UCSORTHOVIEW
 70
    0
  9
$UCSORGTOP
 10
0
 20
0
 30
0
  9
$UCSORGBOTTOM
 10
0
 20
0
 30
0
  9
$UCSORGLEFT
 10
0
 20
0
 30
0
  9
$UCSORGRIGHT
 10
0
 20
0
 30
0
  9
$UCSORGFRONT
 10
0
 20
0
 30
0
  9
$UCSORGBACK
 10
0
 20
0
 30
0
  9
$PUCSBASE
  2

  9
$PUCSNAME
  2

  9
$PUCSORG
 10
0
 20
0
 30
0
  9
$PUCSXDIR
 10
1
 20
0
 30
0
  9
$PUCSYDIR
 10
0
 20
1
 30
0
  9
$PUCSORTHOREF
  2

  9
$PUCSORTHOVIEW
 70
    0
  9
$PUCSORGTOP
 10
0
 20
0
 30
0
  9
$PUCSORGBOTTOM
 10
0
 20
0
 30
0
  9
$PUCSORGLEFT
 10
0
 20
0
 30
0
  9
$PUCSORGRIGHT
 10
0
 20
0
 30
0
  9
$PUCSORGFRONT
 10
0
 20
0
 30
0
  9
$PUCSORGBACK
 10
0
 20
0
 30
0
  9
$USERI1
 70
    0
  9
$USERI2
 70
    0
  9
$USERI3
 70
    0
  9
$USERI4
 70
    0
  9
$USERI5
 70
    0
  9
$USERR1
 40
0
  9
$USERR2
 40
0
  9
$USERR3
 40
0
  9
$USERR4
 40
0
  9
$USERR5
 40
0
  9
$WORLDVIEW
 70
    1
  9
$SHADEDGE
 70
    3
  9
$SHADEDIF
 70
   70
  9
$TILEMODE
 70
    1
  9
$MAXACTVP
 70
   64
  9
$PINSBASE
 10
0
 20
0
 30
0
  9
$PLIMCHECK
 70
    0
  9
$PEXTMIN
 10
0
 20
0
 30
0
  9
$PEXTMAX
 10
0
 20
0
 30
0
  9
$GRIDMODE
 70
    1
  9
$SNAPSTYLE
 70
    0
  9
$GRIDUNIT
 10
0
 20
0.01
  9
$PLIMMIN
 10
0
 20
0
  9
$PLIMMAX
 10
210
 20
297
  9
$UNITMODE
 70
    0
  9
$VISRETAIN
 70
    1
  9
$PLINEGEN
 70
    0
  9
$PSLTSCALE
 70
    1
  9
$TREEDEPTH
 70
 3020
  9
$CMLSTYLE
  2
Standard
  9
$CMLJUST
 70
    0
  9
$CMLSCALE
 40
20
  9
$PROXYGRAPHICS
 70
    1
  9
$MEASUREMENT
 70
    1
  9
$CELWEIGHT
370
   -1
  9
$ENDCAPS
280
    0
  9
$JOINSTYLE
280
    0
  9
$LWDISPLAY
290
    0
  9
$INSUNITS
 70
    4
  9
$HYPERLINKBASE
  1

  9
$STYLESHEET
  1

  9
$XEDIT
290
    1
  9
$CEPSNTYPE
380
    0
  9
$PSTYLEMODE
290
    1
  9
$EXTNAMES
290
    1
  9
$PSVPSCALE
 40
1
  9
$OLESTARTUP
290
    0
  9
$SORTENTS
280
  127
  9
$INDEXCTL
280
    0
  9
$HIDETEXT
280
    1
  9
$XCLIPFRAME
290
    0
  9
$HALOGAP
280
    0
  9
$OBSCOLOR
 70
  257
  9
$OBSLTYPE
280
    0
  9
$INTERSECTIONDISPLAY
280
    0
  9
$INTERSECTIONCOLOR
 70
  257
  9
$DIMASSOC
280
    1
  9
$PROJECTNAME
  1

  9
$CAMERADISPLAY
290
    0
  9
$LENSLENGTH
 40
50
  9
$CAMERAHEIGHT
 40
0
  9
$STEPSPERSEC
 40
2
  9
$STEPSIZE
 40
50
  9
$3DDWFPREC
 40
2
  9
$PSOLWIDTH
 40
5
  9
$PSOLHEIGHT
 40
80
  9
$LOFTANG1
 40
1.570796326794897
  9
$LOFTANG2
 40
1.570796326794897
  9
$LOFTMAG1
 40
0
  9
$LOFTMAG2
 40
0
  9
$LOFTPARAM
 70
    7
  9
$LOFTNORMALS
280
    1
  9
$LATITUDE
 40
1
  9
$LONGITUDE
 40
1
  9
$NORTHDIRECTION
 40
0
  9
$TIMEZONE
 70
-8000
  9
$LIGHTGLYPHDISPLAY
280
    1
  9
$TILEMODELIGHTSYNCH
280
    1
  9
$SOLIDHIST
280
    1
  9
$SHOWHIST
280
    1
  9
$DWFFRAME
280
    2
  9
$DGNFRAME
280
    0
  9
$REALWORLDSCALE
290
    1
  9
$INTERFERECOLOR
 62
    1
  9
$CSHADOW
280
    0
  9
$SHADOWPLANELOCATION
 40
0
  0
ENDSEC
  0
SECTION
  2
CLASSES
  0
ENDSEC
  0
SECTION
  2
TABLES
  0
TABLE
  2
VPORT
  5
8
330
0
100
AcDbSymbolTable
 70
    1
  0
VPORT
  5
31
330
2
100
AcDbSymbolTableRecord
100
AcDbViewportTableRecord
  2
*ACTIVE
 70
    0
 10
0
 20
0
 11
1
 21
1
 12
269.8264506117999
 22
174.4860300180855
 13
0
 23
0
 14
10
 24
10
 15
10
 25
0.01
 16
0
 26
0
 36
1
 17
0
 27
0
 37
0
 40
461.8133249580467
 41
1.792986425339367
 42
50
 43
0
 44
0
 50
0
 51
0
 71
    0
 72
  100
 73
    1
 74
    3
 75
    0
 76
    1
 77
    0
 78
    0
281
    0
 65
    1
110
0
120
0
130
0
111
1
121
0
131
0
112
0
122
1
132
0
 79
    0
146
0
348
10020
 60
    7
 61
    5
292
1
282
    1
141
0
142
0
 63
  250
421
3358443
  0
ENDTAB
  0
TABLE
  2
LTYPE
  5
5
330
0
100
AcDbSymbolTable
 70
    4
  0
LTYPE
  5
14
330
5
100
AcDbSymbolTableRecord
100
AcDbLinetypeTableRecord
  2
ByBlock
 70
    0
  3

 72
   65
 73
    0
 40
0
  0
LTYPE
  5
15
330
5
100
AcDbSymbolTableRecord
100
AcDbLinetypeTableRecord
  2
ByLayer
 70
    0
  3

 72
   65
 73
    0
 40
0
  0
LTYPE
  5
16
330
5
100
AcDbSymbolTableRecord
100
AcDbLinetypeTableRecord
  2
Continuous
 70
    0
  3
Solid line
 72
   65
 73
    0
 40
0
  0
LTYPE
  5
32
330
5
100
AcDbSymbolTableRecord
100
AcDbLinetypeTableRecord
  2
DOT
 70
    0
  3
Dot . . . . . . . . . . . . . . . . . . . . . .
 72
   65
 73
    2
 40
6.35
 49
0
 74
    0
 49
-6.35
 74
    0
  0
LTYPE
  5
33
330
5
100
AcDbSymbolTableRecord
100
AcDbLinetypeTableRecord
  2
DOTTINY
 70
    0
  3
Dot (.15x) .....................................
 72
   65
 73
    2
 40
0.9525
 49
0
 74
    0
 49
-0.9525
 74
    0
  0
LTYPE
  5
34
330
5
100
AcDbSymbolTableRecord
100
AcDbLinetypeTableRecord
  2
DOT2
 70
    0
  3
Dot (.5x) .....................................
 72
   65
 73
    2
 40
3.175
 49
0
 74
    0
 49
-3.175
 74
    0
  0
LTYPE
  5
35
330
5
100
AcDbSymbolTableRecord
100
AcDbLinetypeTableRecord
  2
DOTX2
 70
    0
  3
Dot (2x) .  .  .  .  .  .  .  .  .  .  .  .  .
 72
   65
 73
    2
 40
12.7
 49
0
 74
    0
 49
-12.7
 74
    0
  0
LTYPE
  5
36
330
5
100
AcDbSymbolTableRecord
100
AcDbLinetypeTableRecord
  2
DASHED
 70
    0
  3
Dashed _ _ _ _ _ _ _ _ _ _ _ _ _ _ _ _ _
 72
   65
 73
    2
 40
19.05
 49
12.7
 74
    0
 49
-6.35
 74
    0
  0
LTYPE
  5
37
330
5
100
AcDbSymbolTableRecord
100
AcDbLinetypeTableRecord
  2
DASHEDTINY
 70
    0
  3
Dashed (.15x) _ _ _ _ _ _ _ _ _ _ _ _ _ _ _ _ _
 72
   65
 73
    2
 40
2.8575
 49
1.905
 74
    0
 49
-0.9525
 74
    0
  0
LTYPE
  5
38
330
5
100
AcDbSymbolTableRecord
100
AcDbLinetypeTableRecord
  2
DASHED2
 70
    0
  3
Dashed (.5x) _ _ _ _ _ _ _ _ _ _ _ _ _ _ _ _ _
 72
   65
 73
    2
 40
9.524999999999999
 49
6.35
 74
    0
 49
-3.175
 74
    0
  0
LTYPE
  5
39
330
5
100
AcDbSymbolTableRecord
100
AcDbLinetypeTableRecord
  2
DASHEDX2
 70
    0
  3
Dashed (2x) ____  ____  ____  ____  ____  ___
 72
   65
 73
    2
 40
38.09999999999999
 49
25.4
 74
    0
 49
-12.7
 74
    0
  0
LTYPE
  5
3A
330
5
100
AcDbSymbolTableRecord
100
AcDbLinetypeTableRecord
  2
DASHDOT
 70
    0
  3
Dash dot __ . __ . __ . __ . __ . __ . __ . __
 72
   65
 73
    4
 40
25.4
 49
12.7
 74
    0
 49
-6.35
 74
    0
 49
0
 74
    0
 49
-6.35
 74
    0
  0
LTYPE
  5
3B
330
5
100
AcDbSymbolTableRecord
100
AcDbLinetypeTableRecord
  2
DASHDOTTINY
 70
    0
  3
Dash dot (.15x) _._._._._._._._._._._._._._._.
 72
   65
 73
    4
 40
3.81
 49
1.905
 74
    0
 49
-0.9525
 74
    0
 49
0
 74
    0
 49
-0.9525
 74
    0
  0
LTYPE
  5
3C
330
5
100
AcDbSymbolTableRecord
100
AcDbLinetypeTableRecord
  2
DASHDOT2
 70
    0
  3
Dash dot (.5x) _._._._._._._._._._._._._._._.
 72
   65
 73
    4
 40
12.7
 49
6.35
 74
    0
 49
-3.175
 74
    0
 49
0
 74
    0
 49
-3.175
 74
    0
  0
LTYPE
  5
3D
330
5
100
AcDbSymbolTableRecord
100
AcDbLinetypeTableRecord
  2
DASHDOTX2
 70
    0
  3
Dash dot (2x) ____  .  ____  .  ____  .  ___
 72
   65
 73
    4
 40
50.8
 49
25.4
 74
    0
 49
-12.7
 74
    0
 49
0
 74
    0
 49
-12.7
 74
    0
  0
LTYPE
  5
3E
330
5
100
AcDbSymbolTableRecord
100
AcDbLinetypeTableRecord
  2
DIVIDE
 70
    0
  3
Divide ____ . . ____ . . ____ . . ____ . . ____
 72
   65
 73
    6
 40
31.75
 49
12.7
 74
    0
 49
-6.35
 74
    0
 49
0
 74
    0
 49
-6.35
 74
    0
 49
0
 74
    0
 49
-6.35
 74
    0
  0
LTYPE
  5
3F
330
5
100
AcDbSymbolTableRecord
100
AcDbLinetypeTableRecord
  2
DIVIDETINY
 70
    0
  3
Divide (.15x) __..__..__..__..__..__..__..__.._
 72
   65
 73
    6
 40
4.7625
 49
1.905
 74
    0
 49
-0.9525
 74
    0
 49
0
 74
    0
 49
-0.9525
 74
    0
 49
0
 74
    0
 49
-0.9525
 74
    0
  0
LTYPE
  5
40
330
5
100
AcDbSymbolTableRecord
100
AcDbLinetypeTableRecord
  2
DIVIDE2
 70
    0
  3
Divide (.5x) __..__..__..__..__..__..__..__.._
 72
   65
 73
    6
 40
15.875
 49
6.35
 74
    0
 49
-3.175
 74
    0
 49
0
 74
    0
 49
-3.175
 74
    0
 49
0
 74
    0
 49
-3.175
 74
    0
  0
LTYPE
  5
41
330
5
100
AcDbSymbolTableRecord
100
AcDbLinetypeTableRecord
  2
DIVIDEX2
 70
    0
  3
Divide (2x) ________  .  .  ________  .  .  _
 72
   65
 73
    6
 40
63.5
 49
25.4
 74
    0
 49
-12.7
 74
    0
 49
0
 74
    0
 49
-12.7
 74
    0
 49
0
 74
    0
 49
-12.7
 74
    0
  0
LTYPE
  5
42
330
5
100
AcDbSymbolTableRecord
100
AcDbLinetypeTableRecord
  2
BORDER
 70
    0
  3
Border __ __ . __ __ . __ __ . __ __ . __ __ .
 72
   65
 73
    6
 40
44.45
 49
12.7
 74
    0
 49
-6.35
 74
    0
 49
12.7
 74
    0
 49
-6.35
 74
    0
 49
0
 74
    0
 49
-6.35
 74
    0
  0
LTYPE
  5
43
330
5
100
AcDbSymbolTableRecord
100
AcDbLinetypeTableRecord
  2
BORDERTINY
 70
    0
  3
Border (.15x) __.__.__.__.__.__.__.__.__.__.__.
 72
   65
 73
    6
 40
6.6675
 49
1.905
 74
    0
 49
-0.9525
 74
    0
 49
1.905
 74
    0
 49
-0.9525
 74
    0
 49
0
 74
    0
 49
-0.9525
 74
    0
  0
LTYPE
  5
44
330
5
100
AcDbSymbolTableRecord
100
AcDbLinetypeTableRecord
  2
BORDER2
 70
    0
  3
Border (.5x) __.__.__.__.__.__.__.__.__.__.__.
 72
   65
 73
    6
 40
22.225
 49
6.35
 74
    0
 49
-3.175
 74
    0
 49
6.35
 74
    0
 49
-3.175
 74
    0
 49
0
 74
    0
 49
-3.175
 74
    0
  0
LTYPE
  5
45
330
5
100
AcDbSymbolTableRecord
100
AcDbLinetypeTableRecord
  2
BORDERX2
 70
    0
  3
Border (2x) ____  ____  .  ____  ____  .  ___
 72
   65
 73
    6
 40
88.89999999999999
 49
25.4
 74
    0
 49
-12.7
 74
    0
 49
25.4
 74
    0
 49
-12.7
 74
    0
 49
0
 74
    0
 49
-12.7
 74
    0
  0
LTYPE
  5
46
330
5
100
AcDbSymbolTableRecord
100
AcDbLinetypeTableRecord
  2
CENTER
 70
    0
  3
Center ____ _ ____ _ ____ _ ____ _ ____ _ ____
 72
   65
 73
    4
 40
50.8
 49
31.75
 74
    0
 49
-6.35
 74
    0
 49
6.35
 74
    0
 49
-6.35
 74
    0
  0
LTYPE
  5
47
330
5
100
AcDbSymbolTableRecord
100
AcDbLinetypeTableRecord
  2
CENTERTINY
 70
    0
  3
Center (.15x) ___ _ ___ _ ___ _ ___ _ ___ _ ___
 72
   65
 73
    4
 40
7.619999999999999
 49
4.7625
 74
    0
 49
-0.9525
 74
    0
 49
0.9525
 74
    0
 49
-0.9525
 74
    0
  0
LTYPE
  5
48
330
5
100
AcDbSymbolTableRecord
100
AcDbLinetypeTableRecord
  2
CENTER2
 70
    0
  3
Center (.5x) ___ _ ___ _ ___ _ ___ _ ___ _ ___
 72
   65
 73
    4
 40
28.575
 49
19.05
 74
    0
 49
-3.175
 74
    0
 49
3.175
 74
    0
 49
-3.175
 74
    0
  0
LTYPE
  5
49
330
5
100
AcDbSymbolTableRecord
100
AcDbLinetypeTableRecord
  2
CENTERX2
 70
    0
  3
Center (2x) ________  __  ________  __  _____
 72
   65
 73
    4
 40
101.6
 49
63.5
 74
    0
 49
-12.7
 74
    0
 49
12.7
 74
    0
 49
-12.7
 74
    0
  0
ENDTAB
  0
TABLE
  2
LAYER
  5
2
330
0
100
AcDbSymbolTable
 70
    1
  0
LAYER
  5
10
330
2
100
AcDbSymbolTableRecord
100
AcDbLayerTableRecord
  2
0
 70
    0
 62
    7
  6
CONTINUOUS
370
   -3
390
F
  0
LAYER
  5
4A
330
2
100
AcDbSymbolTableRecord
100
AcDbLayerTableRecord
  2
Gravur
 70
    0
 62
    4
  6
CONTINUOUS
370
    0
390
F
  0
LAYER
  5
4B
330
2
100
AcDbSymbolTableRecord
100
AcDbLayerTableRecord
  2
Korpus
 70
    0
 62
    9
  6
CONTINUOUS
370
    0
390
F
  0
LAYER
  5
4C
330
2
100
AcDbSymbolTableRecord
100
AcDbLayerTableRecord
  2
Schublade
 70
    0
 62
  253
420
10526884
  6
CONTINUOUS
370
    0
390
F
  0
ENDTAB
  0
TABLE
  2
STYLE
  5
3
330
0
100
AcDbSymbolTable
 70
    3
  0
STYLE
  5
4D
330
2
100
AcDbSymbolTableRecord
100
AcDbTextStyleTableRecord
  2
Standard
 70
    0
 40
0
 41
1
 50
0
 71
    0
 42
1
  3
txt
  4

  0
ENDTAB
  0
TABLE
  2
VIEW
  5
6
330
0
100
AcDbSymbolTable
 70
    0
  0
ENDTAB
  0
TABLE
  2
UCS
  5
7
330
0
100
AcDbSymbolTable
 70
    0
  0
ENDTAB
  0
TABLE
  2
APPID
  5
9
330
0
100
AcDbSymbolTable
 70
    1
  0
APPID
  5
12
330
9
100
AcDbSymbolTableRecord
100
AcDbRegAppTableRecord
  2
ACAD
 70
    0
  0
APPID
  5
4E
330
9
100
AcDbSymbolTableRecord
100
AcDbRegAppTableRecord
  2
LibreCad
 70
    0
  0
ENDTAB
  0
TABLE
  2
DIMSTYLE
  5
A
330
0
100
AcDbSymbolTable
 70
    1
100
AcDbDimStyleTable
 71
    1
  0
DIMSTYLE
105
4F
330
A
100
AcDbSymbolTableRecord
100
AcDbDimStyleTableRecord
  2
Standard
 70
    0
 40
1
 41
2.5
 42
0.625
 43
0.38
 44
1.25
 45
0
 46
0
 47
0
 48
0
 49
1
140
2.5
141
0.09
142
0
143
25.4
144
1
145
0
146
1
147
0.625
148
0
 71
    0
 72
    0
 73
    0
 74
    1
 75
    0
 76
    0
 77
    0
 78
    1
 79
    0
170
    0
171
    2
172
    0
173
    0
174
    0
175
    0
176
    0
177
    0
178
    0
179
    2
271
    2
272
    4
273
    2
274
    2
275
    0
276
    0
277
    2
278
    0
279
    0
280
    0
281
    0
282
    0
283
    1
284
    0
285
    0
286
    0
288
    0
289
    3
340
standard
341

371
   -2
372
   -2
  0
ENDTAB
  0
TABLE
  2
BLOCK_RECORD
  5
1
330
0
100
AcDbSymbolTable
 70
    2
  0
BLOCK_RECORD
  5
1F
330
1
100
AcDbSymbolTableRecord
100
AcDbBlockTableRecord
  2
*Model_Space
 70
    0
280
    1
281
    0
  0
BLOCK_RECORD
  5
1E
330
1
100
AcDbSymbolTableRecord
100
AcDbBlockTableRecord
  2
*Paper_Space
 70
    0
280
    1
281
    0
  0
BLOCK_RECORD
  5
50
330
1
100
AcDbSymbolTableRecord
100
AcDbBlockTableRecord
  2
*D1
 70
    0
280
    1
281
    0
  0
ENDTAB
  0
ENDSEC
  0
SECTION
  2
BLOCKS
  0
BLOCK
  5
20
330
1F
100
AcDbEntity
  8
0
100
AcDbBlockBegin
  2
*Model_Space
 70
    0
 10
0
 20
0
 30
0
  3
*Model_Space
  1

  0
ENDBLK
  5
21
330
1F
100
AcDbEntity
  8
0
100
AcDbBlockEnd
  0
BLOCK
  5
1C
330
1B
100
AcDbEntity
  8
0
100
AcDbBlockBegin
  2
*Paper_Space
 70
    0
 10
0
 20
0
 30
0
  3
*Paper_Space
  1

  0
ENDBLK
  5
1D
330
1F
100
AcDbEntity
  8
0
100
AcDbBlockEnd
  0
BLOCK
  5
51
330
50
100
AcDbEntity
  8
0
100
AcDbBlockBegin
  2
*D1
 70
    1
 10
0
 20
0
  3
*D1
  1

  0
LINE
  5
53
100
AcDbEntity
  8
Korpus
  6
ByBlock
 62
    0
370
   -2
100
AcDbLine
 10
24.598504128
 20
240
 11
337.598504128
 21
240
  0
SOLID
  5
54
100
AcDbEntity
  8
Korpus
  6
ByBlock
 62
    0
370
   -2
100
AcDbTrace
 10
24.598504128
 20
240
 30
0
 11
27.098504128
 21
240.4162846577728
 31
0
 12
27.098504128
 22
239.5837153422272
 32
0
 13
27.098504128
 23
239.5837153422272
 33
0
  0
SOLID
  5
55
100
AcDbEntity
  8
Korpus
  6
ByBlock
 62
    0
370
   -2
100
AcDbTrace
 10
337.598504128
 20
240
 30
0
 11
335.098504128
 21
239.5837153422272
 31
0
 12
335.098504128
 22
240.4162846577728
 32
0
 13
335.098504128
 23
240.4162846577728
 33
0
  0
MTEXT
  5
56
100
AcDbEntity
  8
Korpus
  6
CONTINUOUS
 62
    0
370
   -2
100
AcDbMText
 10
181.098504128
 20
241.875
 30
0
 40
2.5
 41
9.166666666666977
 71
    5
 72
    1
  1
313.00
  7
standard
210
0
220
0
230
1
 50
0
 73
    2
 44
1
  0
LINE
  5
57
100
AcDbEntity
  8
Korpus
  6
ByBlock
 62
    0
370
   -2
100
AcDbLine
 10
24.598504128
 20
236.730243584
 11
24.598504128
 21
241.25
  0
LINE
  5
58
100
AcDbEntity
  8
Korpus
  6
ByBlock
 62
    0
370
   -2
100
AcDbLine
 10
337.598504128
 20
236.730243584
 11
337.598504128
 21
241.25
  0
ENDBLK
  5
52
330
50
100
AcDbEntity
  8
0
100
AcDbBlockEnd
  0
ENDSEC
  0
SECTION
  2
ENTITIES
  0
LINE
  5
59
100
AcDbEntity
  8
Gravur
  6
ByLayer
 62
  256
370
   -1
100
AcDbLine
 10
193.232447616
 20
220.069238864
 11
193.412561872
 21
220.069239808
  0
LINE
  5
5A
100
AcDbEntity
  8
Gravur
  6
ByLayer
 62
  256
370
   -1
100
AcDbLine
 10
193.412561872
 20
220.069239808
 11
193.592676128
 21
220.069240752
  0
LINE
  5
5B
100
AcDbEntity
  8
Gravur
  6
ByLayer
 62
  256
370
   -1
100
AcDbLine
 10
193.432197072
 20
128.595638864
 11
193.412561872
 21
128.595638864
  0
LINE
  5
5C
100
AcDbEntity
  8
Gravur
  6
ByLayer
 62
  256
370
   -1
100
AcDbLine
 10
193.412561872
 20
128.595638864
 11
193.392926672
 21
128.595649248
  0
SPLINE
  5
5D
100
AcDbEntity
  8
Gravur
  6
ByLayer
 62
  256
370
   -1
100
AcDbSpline
210
0
220
0
230
0
 70
    8
 71
    3
 72
    8
 73
    4
 74
    0
 42
1e-07
 43
1e-07
 40
0
 40
0
 40
0
 40
0
 40
1
 40
1
 40
1
 40
1
 10
184.116620048
 20
131.496826512
 30
0
 10
184.116620048
 20
131.496826512
 30
0
 10
176.677287392
 20
146.557263744
 30
0
 10
171.679731568
 20
145.256769696
 30
0
  0
SPLINE
  5
5E
100
AcDbEntity
  8
Gravur
  6
ByLayer
 62
  256
370
   -1
100
AcDbSpline
210
0
220
0
230
0
 70
    8
 71
    3
 72
    8
 73
    4
 74
    0
 42
1e-07
 43
1e-07
 40
0
 40
0
 40
0
 40
0
 40
1
 40
1
 40
1
 40
1
 10
171.679731568
 20
145.256769696
 30
0
 10
166.682176688
 20
143.956274704
 30
0
 10
167.048977328
 20
125.146076896
 30
0
 10
167.048977328
 20
125.146076896
 30
0
  0
SPLINE
  5
5F
100
AcDbEntity
  8
Gravur
  6
ByLayer
 62
  256
370
   -1
100
AcDbSpline
210
0
220
0
230
0
 70
    8
 71
    3
 72
    8
 73
    4
 74
    0
 42
1e-07
 43
1e-07
 40
0
 40
0
 40
0
 40
0
 40
1
 40
1
 40
1
 40
1
 10
167.048977328
 20
125.146076896
 30
0
 10
172.341721008
 20
129.840048928
 30
0
 10
178.120661504
 20
131.373720416
 30
0
 10
184.116620048
 20
131.496826512
 30
0
  0
LINE
  5
60
100
AcDbEntity
  8
Gravur
  6
ByLayer
 62
  256
370
   -1
100
AcDbLine
 10
184.116620048
 20
131.496826512
 11
184.116620048
 21
131.496826512
  0
SPLINE
  5
61
100
AcDbEntity
  8
Gravur
  6
ByLayer
 62
  256
370
   -1
100
AcDbSpline
210
0
220
0
230
0
 70
    8
 71
    3
 72
    8
 73
    4
 74
    0
 42
1e-07
 43
1e-07
 40
0
 40
0
 40
0
 40
0
 40
1
 40
1
 40
1
 40
1
 10
202.376824576
 20
131.496826512
 30
0
 10
202.376824576
 20
131.496826512
 30
0
 10
209.81614968
 20
146.557263744
 30
0
 10
214.813713056
 20
145.256769696
 30
0
  0
SPLINE
  5
62
100
AcDbEntity
  8
Gravur
  6
ByLayer
 62
  256
370
   -1
100
AcDbSpline
210
0
220
0
230
0
 70
    8
 71
    3
 72
    8
 73
    4
 74
    0
 42
1e-07
 43
1e-07
 40
0
 40
0
 40
0
 40
0
 40
1
 40
1
 40
1
 40
1
 10
214.813713056
 20
145.256769696
 30
0
 10
219.811267936
 20
143.956274704
 30
0
 10
219.444469184
 20
125.146076896
 30
0
 10
219.444469184
 20
125.146076896
 30
0
  0
SPLINE
  5
63
100
AcDbEntity
  8
Gravur
  6
ByLayer
 62
  256
370
   -1
100
AcDbSpline
210
0
220
0
230
0
 70
    8
 71
    3
 72
    8
 73
    4
 74
    0
 42
1e-07
 43
1e-07
 40
0
 40
0
 40
0
 40
0
 40
1
 40
1
 40
1
 40
1
 10
219.444469184
 20
125.146076896
 30
0
 10
214.151726448
 20
129.840048928
 30
0
 10
208.37278312
 20
131.373720416
 30
0
 10
202.376824576
 20
131.496826512
 30
0
  0
LINE
  5
64
100
AcDbEntity
  8
Gravur
  6
ByLayer
 62
  256
370
   -1
100
AcDbLine
 10
202.376824576
 20
131.496826512
 11
202.376824576
 21
131.496826512
  0
SPLINE
  5
65
100
AcDbEntity
  8
Gravur
  6
ByLayer
 62
  256
370
   -1
100
AcDbSpline
210
0
220
0
230
0
 70
    8
 71
    3
 72
    8
 73
    4
 74
    0
 42
1e-07
 43
1e-07
 40
0
 40
0
 40
0
 40
0
 40
1
 40
1
 40
1
 40
1
 10
176.177967088
 20
205.457905856
 30
0
 10
170.345445152
 20
205.413819168
 30
0
 10
164.997145184
 20
194.409893424
 30
0
 10
164.997145184
 20
194.409893424
 30
0
  0
LINE
  5
66
100
AcDbEntity
  8
Gravur
  6
ByLayer
 62
  256
370
   -1
100
AcDbLine
 10
164.997145184
 20
194.409893424
 11
164.997145184
 21
185.609780992
  0
SPLINE
  5
67
100
AcDbEntity
  8
Gravur
  6
ByLayer
 62
  256
370
   -1
100
AcDbSpline
210
0
220
0
230
0
 70
    8
 71
    3
 72
    8
 73
    4
 74
    0
 42
1e-07
 43
1e-07
 40
0
 40
0
 40
0
 40
0
 40
1
 40
1
 40
1
 40
1
 10
164.997145184
 20
185.609780992
 30
0
 10
164.997145184
 20
185.609780992
 30
0
 10
169.92536232
 20
197.603800368
 30
0
 10
175.64513384
 20
198.447788288
 30
0
  0
SPLINE
  5
68
100
AcDbEntity
  8
Gravur
  6
ByLayer
 62
  256
370
   -1
100
AcDbSpline
210
0
220
0
230
0
 70
    8
 71
    3
 72
    8
 73
    4
 74
    0
 42
1e-07
 43
1e-07
 40
0
 40
0
 40
0
 40
0
 40
1
 40
1
 40
1
 40
1
 10
175.64513384
 20
198.447788288
 30
0
 10
179.3330964
 20
198.991970304
 30
0
 10
183.536710464
 20
194.052312832
 30
0
 10
187.375836688
 20
190.471905856
 30
0
  0
SPLINE
  5
69
100
AcDbEntity
  8
Gravur
  6
ByLayer
 62
  256
370
   -1
100
AcDbSpline
210
0
220
0
230
0
 70
    8
 71
    3
 72
    8
 73
    4
 74
    0
 42
1e-07
 43
1e-07
 40
0
 40
0
 40
0
 40
0
 40
1
 40
1
 40
1
 40
1
 10
187.375836688
 20
190.471905856
 30
0
 10
187.478779888
 20
189.667577264
 30
0
 10
187.54182776
 20
188.813500816
 30
0
 10
187.559001008
 20
187.932610992
 30
0
  0
SPLINE
  5
6A
100
AcDbEntity
  8
Gravur
  6
ByLayer
 62
  256
370
   -1
100
AcDbSpline
210
0
220
0
230
0
 70
    8
 71
    3
 72
    8
 73
    4
 74
    0
 42
1e-07
 43
1e-07
 40
0
 40
0
 40
0
 40
0
 40
1
 40
1
 40
1
 40
1
 10
187.559001008
 20
187.932610992
 30
0
 10
180.950774448
 20
190.216411312
 30
0
 10
170.125719712
 20
189.222688944
 30
0
 10
164.997145184
 20
184.152809504
 30
0
  0
LINE
  5
6B
100
AcDbEntity
  8
Gravur
  6
ByLayer
 62
  256
370
   -1
100
AcDbLine
 10
164.997145184
 20
184.152809504
 11
164.997145184
 21
179.124173424
  0
SPLINE
  5
6C
100
AcDbEntity
  8
Gravur
  6
ByLayer
 62
  256
370
   -1
100
AcDbSpline
210
0
220
0
230
0
 70
    8
 71
    3
 72
    8
 73
    4
 74
    0
 42
1e-07
 43
1e-07
 40
0
 40
0
 40
0
 40
0
 40
1
 40
1
 40
1
 40
1
 10
164.997145184
 20
179.124173424
 30
0
 10
166.489610128
 20
176.351201744
 30
0
 10
179.292430768
 20
168.037096384
 30
0
 10
187.425792224
 20
184.477505856
 30
0
  0
SPLINE
  5
6D
100
AcDbEntity
  8
Gravur
  6
ByLayer
 62
  256
370
   -1
100
AcDbSpline
210
0
220
0
230
0
 70
    8
 71
    3
 72
    8
 73
    4
 74
    0
 42
1e-07
 43
1e-07
 40
0
 40
0
 40
0
 40
0
 40
1
 40
1
 40
1
 40
1
 10
187.425792224
 20
184.477505856
 30
0
 10
186.949836864
 20
178.88494872
 30
0
 10
185.202672224
 20
172.883076016
 30
0
 10
183.05487304
 20
169.732946128
 30
0
  0
SPLINE
  5
6E
100
AcDbEntity
  8
Gravur
  6
ByLayer
 62
  256
370
   -1
100
AcDbSpline
210
0
220
0
230
0
 70
    8
 71
    3
 72
    8
 73
    4
 74
    0
 42
1e-07
 43
1e-07
 40
0
 40
0
 40
0
 40
0
 40
1
 40
1
 40
1
 40
1
 10
183.05487304
 20
169.732946128
 30
0
 10
180.009501664
 20
165.266364816
 30
0
 10
178.24201176
 20
164.554250864
 30
0
 10
174.06327304
 20
164.837519776
 30
0
  0
SPLINE
  5
6F
100
AcDbEntity
  8
Gravur
  6
ByLayer
 62
  256
370
   -1
100
AcDbSpline
210
0
220
0
230
0
 70
    8
 71
    3
 72
    8
 73
    4
 74
    0
 42
1e-07
 43
1e-07
 40
0
 40
0
 40
0
 40
0
 40
1
 40
1
 40
1
 40
1
 10
174.06327304
 20
164.837519776
 30
0
 10
169.884537152
 20
165.120788688
 30
0
 10
164.997145184
 20
176.942878288
 30
0
 10
164.997145184
 20
176.942878288
 30
0
  0
LINE
  5
70
100
AcDbEntity
  8
Gravur
  6
ByLayer
 62
  256
370
   -1
100
AcDbLine
 10
164.997145184
 20
176.942878288
 11
164.997145184
 21
136.655522192
  0
SPLINE
  5
71
100
AcDbEntity
  8
Gravur
  6
ByLayer
 62
  256
370
   -1
100
AcDbSpline
210
0
220
0
230
0
 70
    8
 71
    3
 72
    8
 73
    4
 74
    0
 42
1e-07
 43
1e-07
 40
0
 40
0
 40
0
 40
0
 40
1
 40
1
 40
1
 40
1
 10
164.997145184
 20
136.655522192
 30
0
 10
166.244425008
 20
145.558668448
 30
0
 10
169.661318912
 20
147.655930592
 30
0
 10
173.005927904
 20
148.169757344
 30
0
  0
SPLINE
  5
72
100
AcDbEntity
  8
Gravur
  6
ByLayer
 62
  256
370
   -1
100
AcDbSpline
210
0
220
0
230
0
 70
    8
 71
    3
 72
    8
 73
    4
 74
    0
 42
1e-07
 43
1e-07
 40
0
 40
0
 40
0
 40
0
 40
1
 40
1
 40
1
 40
1
 10
173.005927904
 20
148.169757344
 30
0
 10
178.778422768
 20
149.056574544
 30
0
 10
181.906876528
 20
133.217067328
 30
0
 10
193.24535304
 20
133.217067328
 30
0
  0
SPLINE
  5
73
100
AcDbEntity
  8
Gravur
  6
ByLayer
 62
  256
370
   -1
100
AcDbSpline
210
0
220
0
230
0
 70
    8
 71
    3
 72
    8
 73
    4
 74
    0
 42
1e-07
 43
1e-07
 40
0
 40
0
 40
0
 40
0
 40
1
 40
1
 40
1
 40
1
 10
193.24535304
 20
133.217067328
 30
0
 10
204.583832384
 20
133.217067328
 30
0
 10
207.72061128
 20
149.056574544
 30
0
 10
213.493107088
 20
148.169757344
 30
0
  0
SPLINE
  5
74
100
AcDbEntity
  8
Gravur
  6
ByLayer
 62
  256
370
   -1
100
AcDbSpline
210
0
220
0
230
0
 70
    8
 71
    3
 72
    8
 73
    4
 74
    0
 42
1e-07
 43
1e-07
 40
0
 40
0
 40
0
 40
0
 40
1
 40
1
 40
1
 40
1
 10
213.493107088
 20
148.169757344
 30
0
 10
216.837715136
 20
147.655930592
 30
0
 10
220.58066664
 20
145.558668448
 30
0
 10
221.827944576
 20
136.655522192
 30
0
  0
LINE
  5
75
100
AcDbEntity
  8
Gravur
  6
ByLayer
 62
  256
370
   -1
100
AcDbLine
 10
221.827944576
 20
136.655522192
 11
221.827944576
 21
176.942878288
  0
SPLINE
  5
76
100
AcDbEntity
  8
Gravur
  6
ByLayer
 62
  256
370
   -1
100
AcDbSpline
210
0
220
0
230
0
 70
    8
 71
    3
 72
    8
 73
    4
 74
    0
 42
1e-07
 43
1e-07
 40
0
 40
0
 40
0
 40
0
 40
1
 40
1
 40
1
 40
1
 10
221.827944576
 20
176.942878288
 30
0
 10
221.827944576
 20
176.942878288
 30
0
 10
216.61449784
 20
165.120788688
 30
0
 10
212.435758176
 20
164.837519776
 30
0
  0
SPLINE
  5
77
100
AcDbEntity
  8
Gravur
  6
ByLayer
 62
  256
370
   -1
100
AcDbSpline
210
0
220
0
230
0
 70
    8
 71
    3
 72
    8
 73
    4
 74
    0
 42
1e-07
 43
1e-07
 40
0
 40
0
 40
0
 40
0
 40
1
 40
1
 40
1
 40
1
 10
212.435758176
 20
164.837519776
 30
0
 10
208.257019456
 20
164.554250864
 30
0
 10
206.481206304
 20
165.266364816
 30
0
 10
203.43583304
 20
169.732946128
 30
0
  0
SPLINE
  5
78
100
AcDbEntity
  8
Gravur
  6
ByLayer
 62
  256
370
   -1
100
AcDbSpline
210
0
220
0
230
0
 70
    8
 71
    3
 72
    8
 73
    4
 74
    0
 42
1e-07
 43
1e-07
 40
0
 40
0
 40
0
 40
0
 40
1
 40
1
 40
1
 40
1
 10
203.43583304
 20
169.732946128
 30
0
 10
201.290301344
 20
172.879756912
 30
0
 10
199.54929064
 20
178.873354512
 30
0
 10
199.073241824
 20
184.46085464
 30
0
  0
SPLINE
  5
79
100
AcDbEntity
  8
Gravur
  6
ByLayer
 62
  256
370
   -1
100
AcDbSpline
210
0
220
0
230
0
 70
    8
 71
    3
 72
    8
 73
    4
 74
    0
 42
1e-07
 43
1e-07
 40
0
 40
0
 40
0
 40
0
 40
1
 40
1
 40
1
 40
1
 10
199.073241824
 20
184.46085464
 30
0
 10
207.206859104
 20
168.0411452
 30
0
 10
220.335954464
 20
176.352070224
 30
0
 10
221.827944576
 20
179.124173424
 30
0
  0
LINE
  5
7A
100
AcDbEntity
  8
Gravur
  6
ByLayer
 62
  256
370
   -1
100
AcDbLine
 10
221.827944576
 20
179.124173424
 11
221.827944576
 21
184.152809504
  0
SPLINE
  5
7B
100
AcDbEntity
  8
Gravur
  6
ByLayer
 62
  256
370
   -1
100
AcDbSpline
210
0
220
0
230
0
 70
    8
 71
    3
 72
    8
 73
    4
 74
    0
 42
1e-07
 43
1e-07
 40
0
 40
0
 40
0
 40
0
 40
1
 40
1
 40
1
 40
1
 10
221.827944576
 20
184.152809504
 30
0
 10
216.69959944
 20
189.2224756
 30
0
 10
205.548326624
 20
190.216038432
 30
0
 10
198.94003304
 20
187.932610992
 30
0
  0
SPLINE
  5
7C
100
AcDbEntity
  8
Gravur
  6
ByLayer
 62
  256
370
   -1
100
AcDbSpline
210
0
220
0
230
0
 70
    8
 71
    3
 72
    8
 73
    4
 74
    0
 42
1e-07
 43
1e-07
 40
0
 40
0
 40
0
 40
0
 40
1
 40
1
 40
1
 40
1
 10
198.94003304
 20
187.932610992
 30
0
 10
198.957456448
 20
188.816644336
 30
0
 10
199.01957448
 20
189.67335832
 30
0
 10
199.123198304
 20
190.480230992
 30
0
  0
SPLINE
  5
7D
100
AcDbEntity
  8
Gravur
  6
ByLayer
 62
  256
370
   -1
100
AcDbSpline
210
0
220
0
230
0
 70
    8
 71
    3
 72
    8
 73
    4
 74
    0
 42
1e-07
 43
1e-07
 40
0
 40
0
 40
0
 40
0
 40
1
 40
1
 40
1
 40
1
 10
199.123198304
 20
190.480230992
 30
0
 10
202.960823568
 20
194.06022072
 30
0
 10
207.159402336
 20
198.991706928
 30
0
 10
210.845582624
 20
198.447788288
 30
0
  0
SPLINE
  5
7E
100
AcDbEntity
  8
Gravur
  6
ByLayer
 62
  256
370
   -1
100
AcDbSpline
210
0
220
0
230
0
 70
    8
 71
    3
 72
    8
 73
    4
 74
    0
 42
1e-07
 43
1e-07
 40
0
 40
0
 40
0
 40
0
 40
1
 40
1
 40
1
 40
1
 10
210.845582624
 20
198.447788288
 30
0
 10
216.565354144
 20
197.603800368
 30
0
 10
221.827944576
 20
185.609780992
 30
0
 10
221.827944576
 20
185.609780992
 30
0
  0
LINE
  5
7F
100
AcDbEntity
  8
Gravur
  6
ByLayer
 62
  256
370
   -1
100
AcDbLine
 10
221.827944576
 20
185.609780992
 11
221.827944576
 21
194.409893424
  0
SPLINE
  5
80
100
AcDbEntity
  8
Gravur
  6
ByLayer
 62
  256
370
   -1
100
AcDbSpline
210
0
220
0
230
0
 70
    8
 71
    3
 72
    8
 73
    4
 74
    0
 42
1e-07
 43
1e-07
 40
0
 40
0
 40
0
 40
0
 40
1
 40
1
 40
1
 40
1
 10
221.827944576
 20
194.409893424
 30
0
 10
221.827944576
 20
194.409893424
 30
0
 10
216.14526376
 20
205.413819168
 30
0
 10
210.312741824
 20
205.457905856
 30
0
  0
SPLINE
  5
81
100
AcDbEntity
  8
Gravur
  6
ByLayer
 62
  256
370
   -1
100
AcDbSpline
210
0
220
0
230
0
 70
    8
 71
    3
 72
    8
 73
    4
 74
    0
 42
1e-07
 43
1e-07
 40
0
 40
0
 40
0
 40
0
 40
1
 40
1
 40
1
 40
1
 10
210.312741824
 20
205.457905856
 30
0
 10
204.480217056
 20
205.501989712
 30
0
 10
196.42278152
 20
192.095389504
 30
0
 10
193.24535304
 20
192.095389504
 30
0
  0
SPLINE
  5
82
100
AcDbEntity
  8
Gravur
  6
ByLayer
 62
  256
370
   -1
100
AcDbSpline
210
0
220
0
230
0
 70
    8
 71
    3
 72
    8
 73
    4
 74
    0
 42
1e-07
 43
1e-07
 40
0
 40
0
 40
0
 40
0
 40
1
 40
1
 40
1
 40
1
 10
193.24535304
 20
192.095389504
 30
0
 10
190.067926448
 20
192.095389504
 30
0
 10
182.010489024
 20
205.501989712
 30
0
 10
176.177967088
 20
205.457905856
 30
0
  0
LINE
  5
83
100
AcDbEntity
  8
Gravur
  6
ByLayer
 62
  256
370
   -1
100
AcDbLine
 10
176.177967088
 20
205.457905856
 11
176.177967088
 21
205.457905856
  0
SPLINE
  5
84
100
AcDbEntity
  8
Gravur
  6
ByLayer
 62
  256
370
   -1
100
AcDbSpline
210
0
220
0
230
0
 70
    8
 71
    3
 72
    8
 73
    4
 74
    0
 42
1e-07
 43
1e-07
 40
0
 40
0
 40
0
 40
0
 40
1
 40
1
 40
1
 40
1
 10
190.99745304
 20
188.65693464
 30
0
 10
190.99745304
 20
188.65693464
 30
0
 10
192.49530728
 20
187.591263424
 30
0
 10
193.24535304
 20
187.591263424
 30
0
  0
SPLINE
  5
85
100
AcDbEntity
  8
Gravur
  6
ByLayer
 62
  256
370
   -1
100
AcDbSpline
210
0
220
0
230
0
 70
    8
 71
    3
 72
    8
 73
    4
 74
    0
 42
1e-07
 43
1e-07
 40
0
 40
0
 40
0
 40
0
 40
1
 40
1
 40
1
 40
1
 10
193.24535304
 20
187.591263424
 30
0
 10
193.9953988
 20
187.591263424
 30
0
 10
195.49325304
 20
188.65693464
 30
0
 10
195.49325304
 20
188.65693464
 30
0
  0
LINE
  5
86
100
AcDbEntity
  8
Gravur
  6
ByLayer
 62
  256
370
   -1
100
AcDbLine
 10
195.49325304
 20
188.65693464
 11
196.95022264
 21
175.294418288
  0
SPLINE
  5
87
100
AcDbEntity
  8
Gravur
  6
ByLayer
 62
  256
370
   -1
100
AcDbSpline
210
0
220
0
230
0
 70
    8
 71
    3
 72
    8
 73
    4
 74
    0
 42
1e-07
 43
1e-07
 40
0
 40
0
 40
0
 40
0
 40
1
 40
1
 40
1
 40
1
 10
196.95022264
 20
175.294418288
 30
0
 10
195.860621968
 20
175.184699056
 30
0
 10
194.257359744
 20
173.793913296
 30
0
 10
193.24535304
 20
172.24726464
 30
0
  0
SPLINE
  5
88
100
AcDbEntity
  8
Gravur
  6
ByLayer
 62
  256
370
   -1
100
AcDbSpline
210
0
220
0
230
0
 70
    8
 71
    3
 72
    8
 73
    4
 74
    0
 42
1e-07
 43
1e-07
 40
0
 40
0
 40
0
 40
0
 40
1
 40
1
 40
1
 40
1
 10
193.24535304
 20
172.24726464
 30
0
 10
192.233349168
 20
173.793913296
 30
0
 10
190.630086944
 20
175.184699056
 30
0
 10
189.54048344
 20
175.294418288
 30
0
  0
LINE
  5
89
100
AcDbEntity
  8
Gravur
  6
ByLayer
 62
  256
370
   -1
100
AcDbLine
 10
189.54048344
 20
175.294418288
 11
190.99745304
 21
188.65693464
  0
SPLINE
  5
8A
100
AcDbEntity
  8
Gravur
  6
ByLayer
 62
  256
370
   -1
100
AcDbSpline
210
0
220
0
230
0
 70
    8
 71
    3
 72
    8
 73
    4
 74
    0
 42
1e-07
 43
1e-07
 40
0
 40
0
 40
0
 40
0
 40
1
 40
1
 40
1
 40
1
 10
179.60809304
 20
185.384990992
 30
0
 10
181.025217344
 20
185.373908432
 30
0
 10
182.448713648
 20
185.2621596
 30
0
 10
183.854131408
 20
185.085270992
 30
0
  0
SPLINE
  5
8B
100
AcDbEntity
  8
Gravur
  6
ByLayer
 62
  256
370
   -1
100
AcDbSpline
210
0
220
0
230
0
 70
    8
 71
    3
 72
    8
 73
    4
 74
    0
 42
1e-07
 43
1e-07
 40
0
 40
0
 40
0
 40
0
 40
1
 40
1
 40
1
 40
1
 10
183.854131408
 20
185.085270992
 30
0
 10
180.7652388
 20
181.233240288
 30
0
 10
178.33647784
 20
178.712011696
 30
0
 10
175.387036688
 20
178.46645464
 30
0
  0
SPLINE
  5
8C
100
AcDbEntity
  8
Gravur
  6
ByLayer
 62
  256
370
   -1
100
AcDbSpline
210
0
220
0
230
0
 70
    8
 71
    3
 72
    8
 73
    4
 74
    0
 42
1e-07
 43
1e-07
 40
0
 40
0
 40
0
 40
0
 40
1
 40
1
 40
1
 40
1
 10
175.387036688
 20
178.46645464
 30
0
 10
172.437602144
 20
178.220897584
 30
0
 10
168.147727248
 20
179.133906064
 30
0
 10
167.444456688
 20
181.638490992
 30
0
  0
SPLINE
  5
8D
100
AcDbEntity
  8
Gravur
  6
ByLayer
 62
  256
370
   -1
100
AcDbSpline
210
0
220
0
230
0
 70
    8
 71
    3
 72
    8
 73
    4
 74
    0
 42
1e-07
 43
1e-07
 40
0
 40
0
 40
0
 40
0
 40
1
 40
1
 40
1
 40
1
 10
167.444456688
 20
181.638490992
 30
0
 10
171.13536264
 20
184.52253088
 30
0
 10
175.35674184
 20
185.418256608
 30
0
 10
179.60809304
 20
185.384990992
 30
0
  0
LINE
  5
8E
100
AcDbEntity
  8
Gravur
  6
ByLayer
 62
  256
370
   -1
100
AcDbLine
 10
179.60809304
 20
185.384990992
 11
179.60809304
 21
185.384990992
  0
SPLINE
  5
8F
100
AcDbEntity
  8
Gravur
  6
ByLayer
 62
  256
370
   -1
100
AcDbSpline
210
0
220
0
230
0
 70
    8
 71
    3
 72
    8
 73
    4
 74
    0
 42
1e-07
 43
1e-07
 40
0
 40
0
 40
0
 40
0
 40
1
 40
1
 40
1
 40
1
 10
206.88261304
 20
185.384990992
 30
0
 10
211.133974624
 20
185.418256608
 30
0
 10
215.35534344
 20
184.52253088
 30
0
 10
219.046252224
 20
181.638490992
 30
0
  0
SPLINE
  5
90
100
AcDbEntity
  8
Gravur
  6
ByLayer
 62
  256
370
   -1
100
AcDbSpline
210
0
220
0
230
0
 70
    8
 71
    3
 72
    8
 73
    4
 74
    0
 42
1e-07
 43
1e-07
 40
0
 40
0
 40
0
 40
0
 40
1
 40
1
 40
1
 40
1
 10
219.046252224
 20
181.638490992
 30
0
 10
218.342981664
 20
179.133906064
 30
0
 10
214.061431904
 20
178.220897584
 30
0
 10
211.111998304
 20
178.46645464
 30
0
  0
SPLINE
  5
91
100
AcDbEntity
  8
Gravur
  6
ByLayer
 62
  256
370
   -1
100
AcDbSpline
210
0
220
0
230
0
 70
    8
 71
    3
 72
    8
 73
    4
 74
    0
 42
1e-07
 43
1e-07
 40
0
 40
0
 40
0
 40
0
 40
1
 40
1
 40
1
 40
1
 10
211.111998304
 20
178.46645464
 30
0
 10
208.162556208
 20
178.712011696
 30
0
 10
205.73379336
 20
181.233240288
 30
0
 10
202.64490264
 20
185.085270992
 30
0
  0
SPLINE
  5
92
100
AcDbEntity
  8
Gravur
  6
ByLayer
 62
  256
370
   -1
100
AcDbSpline
210
0
220
0
230
0
 70
    8
 71
    3
 72
    8
 73
    4
 74
    0
 42
1e-07
 43
1e-07
 40
0
 40
0
 40
0
 40
0
 40
1
 40
1
 40
1
 40
1
 10
202.64490264
 20
185.085270992
 30
0
 10
204.0503204
 20
185.2621596
 30
0
 10
205.46549912
 20
185.373902768
 30
0
 10
206.88261304
 20
185.384990992
 30
0
  0
LINE
  5
93
100
AcDbEntity
  8
Gravur
  6
ByLayer
 62
  256
370
   -1
100
AcDbLine
 10
206.88261304
 20
185.384990992
 11
206.88261304
 21
185.384990992
  0
SPLINE
  5
94
100
AcDbEntity
  8
Gravur
  6
ByLayer
 62
  256
370
   -1
100
AcDbSpline
210
0
220
0
230
0
 70
    8
 71
    3
 72
    8
 73
    4
 74
    0
 42
1e-07
 43
1e-07
 40
0
 40
0
 40
0
 40
0
 40
1
 40
1
 40
1
 40
1
 10
189.39062344
 20
171.814334912
 30
0
 10
190.51659832
 20
171.845282064
 30
0
 10
191.703793488
 20
170.66756088
 30
0
 10
193.24535304
 20
169.333319776
 30
0
  0
SPLINE
  5
95
100
AcDbEntity
  8
Gravur
  6
ByLayer
 62
  256
370
   -1
100
AcDbSpline
210
0
220
0
230
0
 70
    8
 71
    3
 72
    8
 73
    4
 74
    0
 42
1e-07
 43
1e-07
 40
0
 40
0
 40
0
 40
0
 40
1
 40
1
 40
1
 40
1
 10
193.24535304
 20
169.333319776
 30
0
 10
195.14266088
 20
170.975463472
 30
0
 10
196.507185504
 20
172.37945768
 30
0
 10
197.874361824
 20
171.589544912
 30
0
  0
LINE
  5
96
100
AcDbEntity
  8
Gravur
  6
ByLayer
 62
  256
370
   -1
100
AcDbLine
 10
197.874361824
 20
171.589544912
 11
198.407202624
 21
166.427700992
  0
SPLINE
  5
97
100
AcDbEntity
  8
Gravur
  6
ByLayer
 62
  256
370
   -1
100
AcDbSpline
210
0
220
0
230
0
 70
    8
 71
    3
 72
    8
 73
    4
 74
    0
 42
1e-07
 43
1e-07
 40
0
 40
0
 40
0
 40
0
 40
1
 40
1
 40
1
 40
1
 10
198.407202624
 20
166.427700992
 30
0
 10
196.547078944
 20
166.503635408
 30
0
 10
194.284461984
 20
164.999174112
 30
0
 10
193.24535304
 20
162.989246128
 30
0
  0
SPLINE
  5
98
100
AcDbEntity
  8
Gravur
  6
ByLayer
 62
  256
370
   -1
100
AcDbSpline
210
0
220
0
230
0
 70
    8
 71
    3
 72
    8
 73
    4
 74
    0
 42
1e-07
 43
1e-07
 40
0
 40
0
 40
0
 40
0
 40
1
 40
1
 40
1
 40
1
 10
193.24535304
 20
162.989246128
 30
0
 10
192.206245984
 20
164.999174112
 30
0
 10
189.94363752
 20
166.503635408
 30
0
 10
188.08351384
 20
166.427700992
 30
0
  0
LINE
  5
99
100
AcDbEntity
  8
Gravur
  6
ByLayer
 62
  256
370
   -1
100
AcDbLine
 10
188.08351384
 20
166.427700992
 11
188.616347088
 21
171.589544912
  0
SPLINE
  5
9A
100
AcDbEntity
  8
Gravur
  6
ByLayer
 62
  256
370
   -1
100
AcDbSpline
210
0
220
0
230
0
 70
    8
 71
    3
 72
    8
 73
    4
 74
    0
 42
1e-07
 43
1e-07
 40
0
 40
0
 40
0
 40
0
 40
1
 40
1
 40
1
 40
1
 10
188.616347088
 20
171.589544912
 30
0
 10
188.8726884
 20
171.737654736
 30
0
 10
189.130788384
 20
171.807192608
 30
0
 10
189.39062344
 20
171.814334912
 30
0
  0
LINE
  5
9B
100
AcDbEntity
  8
Gravur
  6
ByLayer
 62
  256
370
   -1
100
AcDbLine
 10
189.39062344
 20
171.814334912
 11
189.39062344
 21
171.814334912
  0
SPLINE
  5
9C
100
AcDbEntity
  8
Gravur
  6
ByLayer
 62
  256
370
   -1
100
AcDbSpline
210
0
220
0
230
0
 70
    8
 71
    3
 72
    8
 73
    4
 74
    0
 42
1e-07
 43
1e-07
 40
0
 40
0
 40
0
 40
0
 40
1
 40
1
 40
1
 40
1
 10
164.997145184
 20
167.618254912
 30
0
 10
170.265346752
 20
160.169243424
 30
0
 10
176.746840368
 20
153.364779088
 30
0
 10
184.778268704
 20
166.294492208
 30
0
  0
SPLINE
  5
9D
100
AcDbEntity
  8
Gravur
  6
ByLayer
 62
  256
370
   -1
100
AcDbSpline
210
0
220
0
230
0
 70
    8
 71
    3
 72
    8
 73
    4
 74
    0
 42
1e-07
 43
1e-07
 40
0
 40
0
 40
0
 40
0
 40
1
 40
1
 40
1
 40
1
 10
184.778268704
 20
166.294492208
 30
0
 10
184.778268704
 20
166.294492208
 30
0
 10
179.56696296
 20
149.704049984
 30
0
 10
174.587788704
 20
150.417657344
 30
0
  0
SPLINE
  5
9E
100
AcDbEntity
  8
Gravur
  6
ByLayer
 62
  256
370
   -1
100
AcDbSpline
210
0
220
0
230
0
 70
    8
 71
    3
 72
    8
 73
    4
 74
    0
 42
1e-07
 43
1e-07
 40
0
 40
0
 40
0
 40
0
 40
1
 40
1
 40
1
 40
1
 10
174.587788704
 20
150.417657344
 30
0
 10
170.243246768
 20
151.040313136
 30
0
 10
164.997145184
 20
167.618254912
 30
0
 10
164.997145184
 20
167.618254912
 30
0
  0
LINE
  5
9F
100
AcDbEntity
  8
Gravur
  6
ByLayer
 62
  256
370
   -1
100
AcDbLine
 10
164.997145184
 20
167.618254912
 11
164.997145184
 21
167.618254912
  0
SPLINE
  5
A0
100
AcDbEntity
  8
Gravur
  6
ByLayer
 62
  256
370
   -1
100
AcDbSpline
210
0
220
0
230
0
 70
    8
 71
    3
 72
    8
 73
    4
 74
    0
 42
1e-07
 43
1e-07
 40
0
 40
0
 40
0
 40
0
 40
1
 40
1
 40
1
 40
1
 10
220.37001304
 20
167.618254912
 30
0
 10
220.37001304
 20
167.618254912
 30
0
 10
216.24748008
 20
151.040313136
 30
0
 10
211.902928704
 20
150.417657344
 30
0
  0
SPLINE
  5
A1
100
AcDbEntity
  8
Gravur
  6
ByLayer
 62
  256
370
   -1
100
AcDbSpline
210
0
220
0
230
0
 70
    8
 71
    3
 72
    8
 73
    4
 74
    0
 42
1e-07
 43
1e-07
 40
0
 40
0
 40
0
 40
0
 40
1
 40
1
 40
1
 40
1
 10
211.902928704
 20
150.417657344
 30
0
 10
206.923761056
 20
149.704049984
 30
0
 10
201.712448704
 20
166.294492208
 30
0
 10
201.712448704
 20
166.294492208
 30
0
  0
SPLINE
  5
A2
100
AcDbEntity
  8
Gravur
  6
ByLayer
 62
  256
370
   -1
100
AcDbSpline
210
0
220
0
230
0
 70
    8
 71
    3
 72
    8
 73
    4
 74
    0
 42
1e-07
 43
1e-07
 40
0
 40
0
 40
0
 40
0
 40
1
 40
1
 40
1
 40
1
 10
201.712448704
 20
166.294492208
 30
0
 10
209.743878928
 20
153.364779088
 30
0
 10
215.101814304
 20
160.169243424
 30
0
 10
220.37001304
 20
167.618254912
 30
0
  0
LINE
  5
A3
100
AcDbEntity
  8
Gravur
  6
ByLayer
 62
  256
370
   -1
100
AcDbLine
 10
220.37001304
 20
167.618254912
 11
220.37001304
 21
167.618254912
  0
SPLINE
  5
A4
100
AcDbEntity
  8
Gravur
  6
ByLayer
 62
  256
370
   -1
100
AcDbSpline
210
0
220
0
230
0
 70
    8
 71
    3
 72
    8
 73
    4
 74
    0
 42
1e-07
 43
1e-07
 40
0
 40
0
 40
0
 40
0
 40
1
 40
1
 40
1
 40
1
 10
188.308301008
 20
162.140039776
 30
0
 10
189.745379584
 20
162.137908224
 30
0
 10
191.2850804
 20
161.758772336
 30
0
 10
193.24535304
 20
159.80888464
 30
0
  0
SPLINE
  5
A5
100
AcDbEntity
  8
Gravur
  6
ByLayer
 62
  256
370
   -1
100
AcDbSpline
210
0
220
0
230
0
 70
    8
 71
    3
 72
    8
 73
    4
 74
    0
 42
1e-07
 43
1e-07
 40
0
 40
0
 40
0
 40
0
 40
1
 40
1
 40
1
 40
1
 10
193.24535304
 20
159.80888464
 30
0
 10
195.85905304
 20
162.408732384
 30
0
 10
197.725634624
 20
162.206881584
 30
0
 10
199.597757488
 20
162.05678464
 30
0
  0
LINE
  5
A6
100
AcDbEntity
  8
Gravur
  6
ByLayer
 62
  256
370
   -1
100
AcDbLine
 10
199.597757488
 20
162.05678464
 11
199.997378176
 21
157.694193424
  0
SPLINE
  5
A7
100
AcDbEntity
  8
Gravur
  6
ByLayer
 62
  256
370
   -1
100
AcDbSpline
210
0
220
0
230
0
 70
    8
 71
    3
 72
    8
 73
    4
 74
    0
 42
1e-07
 43
1e-07
 40
0
 40
0
 40
0
 40
0
 40
1
 40
1
 40
1
 40
1
 10
199.997378176
 20
157.694193424
 30
0
 10
196.847051936
 20
156.144401248
 30
0
 10
194.766742144
 20
153.948873424
 30
0
 10
193.24535304
 20
151.34179464
 30
0
  0
SPLINE
  5
A8
100
AcDbEntity
  8
Gravur
  6
ByLayer
 62
  256
370
   -1
100
AcDbSpline
210
0
220
0
230
0
 70
    8
 71
    3
 72
    8
 73
    4
 74
    0
 42
1e-07
 43
1e-07
 40
0
 40
0
 40
0
 40
0
 40
1
 40
1
 40
1
 40
1
 10
193.24535304
 20
151.34179464
 30
0
 10
191.723965824
 20
153.948873424
 30
0
 10
189.65197928
 20
156.144401248
 30
0
 10
186.50165304
 20
157.694193424
 30
0
  0
LINE
  5
A9
100
AcDbEntity
  8
Gravur
  6
ByLayer
 62
  256
370
   -1
100
AcDbLine
 10
186.50165304
 20
157.694193424
 11
186.892961808
 21
162.05678464
  0
SPLINE
  5
AA
100
AcDbEntity
  8
Gravur
  6
ByLayer
 62
  256
370
   -1
100
AcDbSpline
210
0
220
0
230
0
 70
    8
 71
    3
 72
    8
 73
    4
 74
    0
 42
1e-07
 43
1e-07
 40
0
 40
0
 40
0
 40
0
 40
1
 40
1
 40
1
 40
1
 10
186.892961808
 20
162.05678464
 30
0
 10
187.360986624
 20
162.094309584
 30
0
 10
187.829276704
 20
162.140756272
 30
0
 10
188.308301008
 20
162.140039776
 30
0
  0
LINE
  5
AB
100
AcDbEntity
  8
Gravur
  6
ByLayer
 62
  256
370
   -1
100
AcDbLine
 10
188.308301008
 20
162.140039776
 11
188.308301008
 21
162.140039776
  0
SPLINE
  5
AC
100
AcDbEntity
  8
Gravur
  6
ByLayer
 62
  256
370
   -1
100
AcDbSpline
210
0
220
0
230
0
 70
    8
 71
    3
 72
    8
 73
    4
 74
    0
 42
1e-07
 43
1e-07
 40
0
 40
0
 40
0
 40
0
 40
1
 40
1
 40
1
 40
1
 10
184.378636688
 20
155.31308464
 30
0
 10
187.47352936
 20
155.304558432
 30
0
 10
189.36525816
 20
151.83148048
 30
0
 10
193.24535304
 20
146.579576128
 30
0
  0
SPLINE
  5
AD
100
AcDbEntity
  8
Gravur
  6
ByLayer
 62
  256
370
   -1
100
AcDbSpline
210
0
220
0
230
0
 70
    8
 71
    3
 72
    8
 73
    4
 74
    0
 42
1e-07
 43
1e-07
 40
0
 40
0
 40
0
 40
0
 40
1
 40
1
 40
1
 40
1
 10
193.24535304
 20
146.579576128
 30
0
 10
197.12544792
 20
151.83148048
 30
0
 10
199.01717672
 20
155.304564096
 30
0
 10
202.112072224
 20
155.31308464
 30
0
  0
SPLINE
  5
AE
100
AcDbEntity
  8
Gravur
  6
ByLayer
 62
  256
370
   -1
100
AcDbSpline
210
0
220
0
230
0
 70
    8
 71
    3
 72
    8
 73
    4
 74
    0
 42
1e-07
 43
1e-07
 40
0
 40
0
 40
0
 40
0
 40
1
 40
1
 40
1
 40
1
 10
202.112072224
 20
155.31308464
 30
0
 10
205.206964896
 20
155.321609904
 30
0
 10
206.839820576
 20
147.823611424
 30
0
 10
204.22676344
 20
144.06525856
 30
0
  0
SPLINE
  5
AF
100
AcDbEntity
  8
Gravur
  6
ByLayer
 62
  256
370
   -1
100
AcDbSpline
210
0
220
0
230
0
 70
    8
 71
    3
 72
    8
 73
    4
 74
    0
 42
1e-07
 43
1e-07
 40
0
 40
0
 40
0
 40
0
 40
1
 40
1
 40
1
 40
1
 10
204.22676344
 20
144.06525856
 30
0
 10
203.409958944
 20
145.981010272
 30
0
 10
202.592663568
 20
148.057393024
 30
0
 10
200.130587904
 20
145.921857344
 30
0
  0
SPLINE
  5
B0
100
AcDbEntity
  8
Gravur
  6
ByLayer
 62
  256
370
   -1
100
AcDbSpline
210
0
220
0
230
0
 70
    8
 71
    3
 72
    8
 73
    4
 74
    0
 42
1e-07
 43
1e-07
 40
0
 40
0
 40
0
 40
0
 40
1
 40
1
 40
1
 40
1
 10
200.130587904
 20
145.921857344
 30
0
 10
197.668514128
 20
143.786321664
 30
0
 10
197.847533344
 20
141.061137152
 30
0
 10
198.007567776
 20
138.112499344
 30
0
  0
LINE
  5
B1
100
AcDbEntity
  8
Gravur
  6
ByLayer
 62
  256
370
   -1
100
AcDbLine
 10
198.007567776
 20
138.112499344
 11
193.24535304
 21
136.921948256
  0
LINE
  5
B2
100
AcDbEntity
  8
Gravur
  6
ByLayer
 62
  256
370
   -1
100
AcDbLine
 10
193.24535304
 20
136.921948256
 11
188.483138304
 21
138.112499344
  0
SPLINE
  5
B3
100
AcDbEntity
  8
Gravur
  6
ByLayer
 62
  256
370
   -1
100
AcDbSpline
210
0
220
0
230
0
 70
    8
 71
    3
 72
    8
 73
    4
 74
    0
 42
1e-07
 43
1e-07
 40
0
 40
0
 40
0
 40
0
 40
1
 40
1
 40
1
 40
1
 10
188.483138304
 20
138.112499344
 30
0
 10
188.643174624
 20
141.061137152
 30
0
 10
188.83051992
 20
143.786321664
 30
0
 10
186.368447088
 20
145.921857344
 30
0
  0
SPLINE
  5
B4
100
AcDbEntity
  8
Gravur
  6
ByLayer
 62
  256
370
   -1
100
AcDbSpline
210
0
220
0
230
0
 70
    8
 71
    3
 72
    8
 73
    4
 74
    0
 42
1e-07
 43
1e-07
 40
0
 40
0
 40
0
 40
0
 40
1
 40
1
 40
1
 40
1
 10
186.368447088
 20
145.921857344
 30
0
 10
183.90637048
 20
148.057393024
 30
0
 10
183.080749968
 20
145.981010272
 30
0
 10
182.26394264
 20
144.06525856
 30
0
  0
SPLINE
  5
B5
100
AcDbEntity
  8
Gravur
  6
ByLayer
 62
  256
370
   -1
100
AcDbSpline
210
0
220
0
230
0
 70
    8
 71
    3
 72
    8
 73
    4
 74
    0
 42
1e-07
 43
1e-07
 40
0
 40
0
 40
0
 40
0
 40
1
 40
1
 40
1
 40
1
 10
182.26394264
 20
144.06525856
 30
0
 10
179.650895888
 20
147.823611424
 30
0
 10
181.283741184
 20
155.321609904
 30
0
 10
184.378636688
 20
155.31308464
 30
0
  0
LINE
  5
B6
100
AcDbEntity
  8
Gravur
  6
ByLayer
 62
  256
370
   -1
100
AcDbLine
 10
184.378636688
 20
155.31308464
 11
184.378636688
 21
155.31308464
  0
SPLINE
  5
B7
100
AcDbEntity
  8
Gravur
  6
ByLayer
 62
  256
370
   -1
100
AcDbSpline
210
0
220
0
230
0
 70
    8
 71
    3
 72
    8
 73
    4
 74
    0
 42
1e-07
 43
1e-07
 40
0
 40
0
 40
0
 40
0
 40
1
 40
1
 40
1
 40
1
 10
201.18605448
 20
218.290400192
 30
0
 10
196.313156688
 20
218.885072048
 30
0
 10
195.6192204
 20
216.570407648
 30
0
 10
193.246722784
 20
216.570407648
 30
0
  0
SPLINE
  5
B8
100
AcDbEntity
  8
Gravur
  6
ByLayer
 62
  256
370
   -1
100
AcDbSpline
210
0
220
0
230
0
 70
    8
 71
    3
 72
    8
 73
    4
 74
    0
 42
1e-07
 43
1e-07
 40
0
 40
0
 40
0
 40
0
 40
1
 40
1
 40
1
 40
1
 10
193.246722784
 20
216.570407648
 30
0
 10
190.874224224
 20
216.570407648
 30
0
 10
190.180290768
 20
218.885072048
 30
0
 10
185.307381648
 20
218.290400192
 30
0
  0
SPLINE
  5
B9
100
AcDbEntity
  8
Gravur
  6
ByLayer
 62
  256
370
   -1
100
AcDbSpline
210
0
220
0
230
0
 70
    8
 71
    3
 72
    8
 73
    4
 74
    0
 42
1e-07
 43
1e-07
 40
0
 40
0
 40
0
 40
0
 40
1
 40
1
 40
1
 40
1
 10
185.307381648
 20
218.290400192
 30
0
 10
188.55312552
 20
215.132367136
 30
0
 10
191.00561864
 20
208.896581616
 30
0
 10
193.246722784
 20
208.896581616
 30
0
  0
SPLINE
  5
BA
100
AcDbEntity
  8
Gravur
  6
ByLayer
 62
  256
370
   -1
100
AcDbSpline
210
0
220
0
230
0
 70
    8
 71
    3
 72
    8
 73
    4
 74
    0
 42
1e-07
 43
1e-07
 40
0
 40
0
 40
0
 40
0
 40
1
 40
1
 40
1
 40
1
 10
193.246722784
 20
208.896581616
 30
0
 10
195.487825984
 20
208.896581616
 30
0
 10
197.940319104
 20
215.132367136
 30
0
 10
201.18605448
 20
218.290400192
 30
0
  0
LINE
  5
BB
100
AcDbEntity
  8
Gravur
  6
ByLayer
 62
  256
370
   -1
100
AcDbLine
 10
201.18605448
 20
218.290400192
 11
201.18605448
 21
218.290400192
  0
SPLINE
  5
BC
100
AcDbEntity
  8
Gravur
  6
ByLayer
 62
  256
370
   -1
100
AcDbSpline
210
0
220
0
230
0
 70
    8
 71
    3
 72
    8
 73
    4
 74
    0
 42
1e-07
 43
1e-07
 40
0
 40
0
 40
0
 40
0
 40
1
 40
1
 40
1
 40
1
 10
174.987412224
 20
211.013499728
 30
0
 10
168.784633664
 20
211.013499728
 30
0
 10
164.997145184
 20
201.090452096
 30
0
 10
164.997145184
 20
201.090452096
 30
0
  0
LINE
  5
BD
100
AcDbEntity
  8
Gravur
  6
ByLayer
 62
  256
370
   -1
100
AcDbLine
 10
164.997145184
 20
201.090452096
 11
164.997145184
 21
228.742674992
  0
SPLINE
  5
BE
100
AcDbEntity
  8
Gravur
  6
ByLayer
 62
  256
370
   -1
100
AcDbSpline
210
0
220
0
230
0
 70
    8
 71
    3
 72
    8
 73
    4
 74
    0
 42
1e-07
 43
1e-07
 40
0
 40
0
 40
0
 40
0
 40
1
 40
1
 40
1
 40
1
 10
164.997145184
 20
228.742674992
 30
0
 10
173.324509968
 20
228.742674992
 30
0
 10
188.957130144
 20
204.795055488
 30
0
 10
193.246722784
 20
204.795055488
 30
0
  0
SPLINE
  5
BF
100
AcDbEntity
  8
Gravur
  6
ByLayer
 62
  256
370
   -1
100
AcDbSpline
210
0
220
0
230
0
 70
    8
 71
    3
 72
    8
 73
    4
 74
    0
 42
1e-07
 43
1e-07
 40
0
 40
0
 40
0
 40
0
 40
1
 40
1
 40
1
 40
1
 10
193.246722784
 20
204.795055488
 30
0
 10
197.536315424
 20
204.795055488
 30
0
 10
213.500590176
 20
228.742674992
 30
0
 10
221.827944576
 20
228.742674992
 30
0
  0
LINE
  5
C0
100
AcDbEntity
  8
Gravur
  6
ByLayer
 62
  256
370
   -1
100
AcDbLine
 10
221.827944576
 20
228.742674992
 11
221.827944576
 21
201.090452096
  0
SPLINE
  5
C1
100
AcDbEntity
  8
Gravur
  6
ByLayer
 62
  256
370
   -1
100
AcDbSpline
210
0
220
0
230
0
 70
    8
 71
    3
 72
    8
 73
    4
 74
    0
 42
1e-07
 43
1e-07
 40
0
 40
0
 40
0
 40
0
 40
1
 40
1
 40
1
 40
1
 10
221.827944576
 20
201.090452096
 30
0
 10
221.827944576
 20
201.090452096
 30
0
 10
217.70881096
 20
211.013499728
 30
0
 10
211.5060324
 20
211.013499728
 30
0
  0
SPLINE
  5
C2
100
AcDbEntity
  8
Gravur
  6
ByLayer
 62
  256
370
   -1
100
AcDbSpline
210
0
220
0
230
0
 70
    8
 71
    3
 72
    8
 73
    4
 74
    0
 42
1e-07
 43
1e-07
 40
0
 40
0
 40
0
 40
0
 40
1
 40
1
 40
1
 40
1
 10
211.5060324
 20
211.013499728
 30
0
 10
205.303245344
 20
211.013499728
 30
0
 10
200.229689968
 20
201.090452096
 30
0
 10
193.246722784
 20
201.090452096
 30
0
  0
SPLINE
  5
C3
100
AcDbEntity
  8
Gravur
  6
ByLayer
 62
  256
370
   -1
100
AcDbSpline
210
0
220
0
230
0
 70
    8
 71
    3
 72
    8
 73
    4
 74
    0
 42
1e-07
 43
1e-07
 40
0
 40
0
 40
0
 40
0
 40
1
 40
1
 40
1
 40
1
 10
193.246722784
 20
201.090452096
 30
0
 10
186.263757488
 20
201.090452096
 30
0
 10
181.190202112
 20
211.013499728
 30
0
 10
174.987412224
 20
211.013499728
 30
0
  0
LINE
  5
C4
100
AcDbEntity
  8
Gravur
  6
ByLayer
 62
  256
370
   -1
100
AcDbLine
 10
174.987412224
 20
211.013499728
 11
174.987412224
 21
211.013499728
  0
LINE
  5
C5
100
AcDbEntity
  8
Gravur
  6
ByLayer
 62
  256
370
   -1
100
AcDbLine
 10
57.23530243200003
 20
219.326563872
 11
57.41541668799999
 21
219.326564816
  0
LINE
  5
C6
100
AcDbEntity
  8
Gravur
  6
ByLayer
 62
  256
370
   -1
100
AcDbLine
 10
57.41541668799999
 20
219.326564816
 11
57.59553094399996
 21
219.32656576
  0
LINE
  5
C7
100
AcDbEntity
  8
Gravur
  6
ByLayer
 62
  256
370
   -1
100
AcDbLine
 10
40.180821904
 20
204.715230864
 11
40.180821904
 21
204.715230864
  0
SPLINE
  5
C8
100
AcDbEntity
  8
Gravur
  6
ByLayer
 62
  256
370
   -1
100
AcDbSpline
210
0
220
0
230
0
 70
    8
 71
    3
 72
    8
 73
    4
 74
    0
 42
1e-07
 43
1e-07
 40
0
 40
0
 40
0
 40
0
 40
1
 40
1
 40
1
 40
1
 10
65.18890929600002
 20
217.5477252
 30
0
 10
60.31601150400002
 20
218.142397056
 30
0
 10
59.62207521599998
 20
215.827732656
 30
0
 10
57.24957760000001
 20
215.827732656
 30
0
  0
SPLINE
  5
C9
100
AcDbEntity
  8
Gravur
  6
ByLayer
 62
  256
370
   -1
100
AcDbSpline
210
0
220
0
230
0
 70
    8
 71
    3
 72
    8
 73
    4
 74
    0
 42
1e-07
 43
1e-07
 40
0
 40
0
 40
0
 40
0
 40
1
 40
1
 40
1
 40
1
 10
57.24957760000001
 20
215.827732656
 30
0
 10
54.87707904000001
 20
215.827732656
 30
0
 10
54.18314558399999
 20
218.142397056
 30
0
 10
49.31023646399998
 20
217.5477252
 30
0
  0
SPLINE
  5
CA
100
AcDbEntity
  8
Gravur
  6
ByLayer
 62
  256
370
   -1
100
AcDbSpline
210
0
220
0
230
0
 70
    8
 71
    3
 72
    8
 73
    4
 74
    0
 42
1e-07
 43
1e-07
 40
0
 40
0
 40
0
 40
0
 40
1
 40
1
 40
1
 40
1
 10
49.31023646399998
 20
217.5477252
 30
0
 10
52.555980336
 20
214.389692144
 30
0
 10
55.00847345599999
 20
208.153906624
 30
0
 10
57.24957760000001
 20
208.153906624
 30
0
  0
SPLINE
  5
CB
100
AcDbEntity
  8
Gravur
  6
ByLayer
 62
  256
370
   -1
100
AcDbSpline
210
0
220
0
230
0
 70
    8
 71
    3
 72
    8
 73
    4
 74
    0
 42
1e-07
 43
1e-07
 40
0
 40
0
 40
0
 40
0
 40
1
 40
1
 40
1
 40
1
 10
57.24957760000001
 20
208.153906624
 30
0
 10
59.49068080000001
 20
208.153906624
 30
0
 10
61.94317391999999
 20
214.389692144
 30
0
 10
65.18890929600002
 20
217.5477252
 30
0
  0
LINE
  5
CC
100
AcDbEntity
  8
Gravur
  6
ByLayer
 62
  256
370
   -1
100
AcDbLine
 10
65.18890929600002
 20
217.5477252
 11
65.18890929600002
 21
217.5477252
  0
SPLINE
  5
CD
100
AcDbEntity
  8
Gravur
  6
ByLayer
 62
  256
370
   -1
100
AcDbSpline
210
0
220
0
230
0
 70
    8
 71
    3
 72
    8
 73
    4
 74
    0
 42
1e-07
 43
1e-07
 40
0
 40
0
 40
0
 40
0
 40
1
 40
1
 40
1
 40
1
 10
38.99026703999999
 20
210.270824736
 30
0
 10
32.78748848000001
 20
210.270824736
 30
0
 10
29
 20
200.347777104
 30
0
 10
29
 20
200.347777104
 30
0
  0
LINE
  5
CE
100
AcDbEntity
  8
Gravur
  6
ByLayer
 62
  256
370
   -1
100
AcDbLine
 10
29
 20
200.347777104
 11
29
 21
228
  0
SPLINE
  5
CF
100
AcDbEntity
  8
Gravur
  6
ByLayer
 62
  256
370
   -1
100
AcDbSpline
210
0
220
0
230
0
 70
    8
 71
    3
 72
    8
 73
    4
 74
    0
 42
1e-07
 43
1e-07
 40
0
 40
0
 40
0
 40
0
 40
1
 40
1
 40
1
 40
1
 10
29
 20
228
 30
0
 10
37.327364784
 20
228
 30
0
 10
52.95998495999999
 20
204.052380496
 30
0
 10
57.24957760000001
 20
204.052380496
 30
0
  0
SPLINE
  5
D0
100
AcDbEntity
  8
Gravur
  6
ByLayer
 62
  256
370
   -1
100
AcDbSpline
210
0
220
0
230
0
 70
    8
 71
    3
 72
    8
 73
    4
 74
    0
 42
1e-07
 43
1e-07
 40
0
 40
0
 40
0
 40
0
 40
1
 40
1
 40
1
 40
1
 10
57.24957760000001
 20
204.052380496
 30
0
 10
61.53917023999998
 20
204.052380496
 30
0
 10
77.50344499200003
 20
228
 30
0
 10
85.83079939200002
 20
228
 30
0
  0
LINE
  5
D1
100
AcDbEntity
  8
Gravur
  6
ByLayer
 62
  256
370
   -1
100
AcDbLine
 10
85.83079939200002
 20
228
 11
85.83079939200002
 21
200.347777104
  0
SPLINE
  5
D2
100
AcDbEntity
  8
Gravur
  6
ByLayer
 62
  256
370
   -1
100
AcDbSpline
210
0
220
0
230
0
 70
    8
 71
    3
 72
    8
 73
    4
 74
    0
 42
1e-07
 43
1e-07
 40
0
 40
0
 40
0
 40
0
 40
1
 40
1
 40
1
 40
1
 10
85.83079939200002
 20
200.347777104
 30
0
 10
85.83079939200002
 20
200.347777104
 30
0
 10
81.71166577600002
 20
210.270824736
 30
0
 10
75.50888721600001
 20
210.270824736
 30
0
  0
SPLINE
  5
D3
100
AcDbEntity
  8
Gravur
  6
ByLayer
 62
  256
370
   -1
100
AcDbSpline
210
0
220
0
230
0
 70
    8
 71
    3
 72
    8
 73
    4
 74
    0
 42
1e-07
 43
1e-07
 40
0
 40
0
 40
0
 40
0
 40
1
 40
1
 40
1
 40
1
 10
75.50888721600001
 20
210.270824736
 30
0
 10
69.30610016000003
 20
210.270824736
 30
0
 10
64.23254478399997
 20
200.347777104
 30
0
 10
57.24957760000001
 20
200.347777104
 30
0
  0
SPLINE
  5
D4
100
AcDbEntity
  8
Gravur
  6
ByLayer
 62
  256
370
   -1
100
AcDbSpline
210
0
220
0
230
0
 70
    8
 71
    3
 72
    8
 73
    4
 74
    0
 42
1e-07
 43
1e-07
 40
0
 40
0
 40
0
 40
0
 40
1
 40
1
 40
1
 40
1
 10
57.24957760000001
 20
200.347777104
 30
0
 10
50.26661230399998
 20
200.347777104
 30
0
 10
45.193056928
 20
210.270824736
 30
0
 10
38.99026703999999
 20
210.270824736
 30
0
  0
LINE
  5
D5
100
AcDbEntity
  8
Gravur
  6
ByLayer
 62
  256
370
   -1
100
AcDbLine
 10
38.99026703999999
 20
210.270824736
 11
38.99026703999999
 21
210.270824736
  0
LINE
  5
D6
100
AcDbEntity
  8
Gravur
  6
ByLayer
 62
  256
370
   -1
100
AcDbLine
 10
125.235302432
 20
219.326563872
 11
125.415416688
 21
219.326564816
  0
LINE
  5
D7
100
AcDbEntity
  8
Gravur
  6
ByLayer
 62
  256
370
   -1
100
AcDbLine
 10
125.415416688
 20
219.326564816
 11
125.595530944
 21
219.32656576
  0
LINE
  5
D8
100
AcDbEntity
  8
Gravur
  6
ByLayer
 62
  256
370
   -1
100
AcDbLine
 10
108.180821904
 20
204.715230864
 11
108.180821904
 21
204.715230864
  0
SPLINE
  5
D9
100
AcDbEntity
  8
Gravur
  6
ByLayer
 62
  256
370
   -1
100
AcDbSpline
210
0
220
0
230
0
 70
    8
 71
    3
 72
    8
 73
    4
 74
    0
 42
1e-07
 43
1e-07
 40
0
 40
0
 40
0
 40
0
 40
1
 40
1
 40
1
 40
1
 10
133.188909296
 20
217.5477252
 30
0
 10
128.316011504
 20
218.142397056
 30
0
 10
127.622075216
 20
215.827732656
 30
0
 10
125.2495776
 20
215.827732656
 30
0
  0
SPLINE
  5
DA
100
AcDbEntity
  8
Gravur
  6
ByLayer
 62
  256
370
   -1
100
AcDbSpline
210
0
220
0
230
0
 70
    8
 71
    3
 72
    8
 73
    4
 74
    0
 42
1e-07
 43
1e-07
 40
0
 40
0
 40
0
 40
0
 40
1
 40
1
 40
1
 40
1
 10
125.2495776
 20
215.827732656
 30
0
 10
122.87707904
 20
215.827732656
 30
0
 10
122.183145584
 20
218.142397056
 30
0
 10
117.310236464
 20
217.5477252
 30
0
  0
SPLINE
  5
DB
100
AcDbEntity
  8
Gravur
  6
ByLayer
 62
  256
370
   -1
100
AcDbSpline
210
0
220
0
230
0
 70
    8
 71
    3
 72
    8
 73
    4
 74
    0
 42
1e-07
 43
1e-07
 40
0
 40
0
 40
0
 40
0
 40
1
 40
1
 40
1
 40
1
 10
117.310236464
 20
217.5477252
 30
0
 10
120.555980336
 20
214.389692144
 30
0
 10
123.008473456
 20
208.153906624
 30
0
 10
125.2495776
 20
208.153906624
 30
0
  0
SPLINE
  5
DC
100
AcDbEntity
  8
Gravur
  6
ByLayer
 62
  256
370
   -1
100
AcDbSpline
210
0
220
0
230
0
 70
    8
 71
    3
 72
    8
 73
    4
 74
    0
 42
1e-07
 43
1e-07
 40
0
 40
0
 40
0
 40
0
 40
1
 40
1
 40
1
 40
1
 10
125.2495776
 20
208.153906624
 30
0
 10
127.4906808
 20
208.153906624
 30
0
 10
129.94317392
 20
214.389692144
 30
0
 10
133.188909296
 20
217.5477252
 30
0
  0
LINE
  5
DD
100
AcDbEntity
  8
Gravur
  6
ByLayer
 62
  256
370
   -1
100
AcDbLine
 10
133.188909296
 20
217.5477252
 11
133.188909296
 21
217.5477252
  0
SPLINE
  5
DE
100
AcDbEntity
  8
Gravur
  6
ByLayer
 62
  256
370
   -1
100
AcDbSpline
210
0
220
0
230
0
 70
    8
 71
    3
 72
    8
 73
    4
 74
    0
 42
1e-07
 43
1e-07
 40
0
 40
0
 40
0
 40
0
 40
1
 40
1
 40
1
 40
1
 10
106.99026704
 20
210.270824736
 30
0
 10
100.78748848
 20
210.270824736
 30
0
 10
97
 20
200.347777104
 30
0
 10
97
 20
200.347777104
 30
0
  0
LINE
  5
DF
100
AcDbEntity
  8
Gravur
  6
ByLayer
 62
  256
370
   -1
100
AcDbLine
 10
97
 20
200.347777104
 11
97
 21
228
  0
SPLINE
  5
E0
100
AcDbEntity
  8
Gravur
  6
ByLayer
 62
  256
370
   -1
100
AcDbSpline
210
0
220
0
230
0
 70
    8
 71
    3
 72
    8
 73
    4
 74
    0
 42
1e-07
 43
1e-07
 40
0
 40
0
 40
0
 40
0
 40
1
 40
1
 40
1
 40
1
 10
97
 20
228
 30
0
 10
105.327364784
 20
228
 30
0
 10
120.95998496
 20
204.052380496
 30
0
 10
125.2495776
 20
204.052380496
 30
0
  0
SPLINE
  5
E1
100
AcDbEntity
  8
Gravur
  6
ByLayer
 62
  256
370
   -1
100
AcDbSpline
210
0
220
0
230
0
 70
    8
 71
    3
 72
    8
 73
    4
 74
    0
 42
1e-07
 43
1e-07
 40
0
 40
0
 40
0
 40
0
 40
1
 40
1
 40
1
 40
1
 10
125.2495776
 20
204.052380496
 30
0
 10
129.53917024
 20
204.052380496
 30
0
 10
145.503444992
 20
228
 30
0
 10
153.830799392
 20
228
 30
0
  0
LINE
  5
E2
100
AcDbEntity
  8
Gravur
  6
ByLayer
 62
  256
370
   -1
100
AcDbLine
 10
153.830799392
 20
228
 11
153.830799392
 21
200.347777104
  0
SPLINE
  5
E3
100
AcDbEntity
  8
Gravur
  6
ByLayer
 62
  256
370
   -1
100
AcDbSpline
210
0
220
0
230
0
 70
    8
 71
    3
 72
    8
 73
    4
 74
    0
 42
1e-07
 43
1e-07
 40
0
 40
0
 40
0
 40
0
 40
1
 40
1
 40
1
 40
1
 10
153.830799392
 20
200.347777104
 30
0
 10
153.830799392
 20
200.347777104
 30
0
 10
149.711665776
 20
210.270824736
 30
0
 10
143.508887216
 20
210.270824736
 30
0
  0
SPLINE
  5
E4
100
AcDbEntity
  8
Gravur
  6
ByLayer
 62
  256
370
   -1
100
AcDbSpline
210
0
220
0
230
0
 70
    8
 71
    3
 72
    8
 73
    4
 74
    0
 42
1e-07
 43
1e-07
 40
0
 40
0
 40
0
 40
0
 40
1
 40
1
 40
1
 40
1
 10
143.508887216
 20
210.270824736
 30
0
 10
137.30610016
 20
210.270824736
 30
0
 10
132.232544784
 20
200.347777104
 30
0
 10
125.2495776
 20
200.347777104
 30
0
  0
SPLINE
  5
E5
100
AcDbEntity
  8
Gravur
  6
ByLayer
 62
  256
370
   -1
100
AcDbSpline
210
0
220
0
230
0
 70
    8
 71
    3
 72
    8
 73
    4
 74
    0
 42
1e-07
 43
1e-07
 40
0
 40
0
 40
0
 40
0
 40
1
 40
1
 40
1
 40
1
 10
125.2495776
 20
200.347777104
 30
0
 10
118.266612304
 20
200.347777104
 30
0
 10
113.193056928
 20
210.270824736
 30
0
 10
106.99026704
 20
210.270824736
 30
0
  0
LINE
  5
E6
100
AcDbEntity
  8
Gravur
  6
ByLayer
 62
  256
370
   -1
100
AcDbLine
 10
106.99026704
 20
210.270824736
 11
106.99026704
 21
210.270824736
  0
LINE
  5
E7
100
AcDbEntity
  8
Gravur
  6
ByLayer
 62
  256
370
   -1
100
AcDbLine
 10
261.235302432
 20
220.326563872
 11
261.415416688
 21
220.326564816
  0
LINE
  5
E8
100
AcDbEntity
  8
Gravur
  6
ByLayer
 62
  256
370
   -1
100
AcDbLine
 10
261.415416688
 20
220.326564816
 11
261.595530944
 21
220.32656576
  0
LINE
  5
E9
100
AcDbEntity
  8
Gravur
  6
ByLayer
 62
  256
370
   -1
100
AcDbLine
 10
261.435051888
 20
128.852963872
 11
261.415416688
 21
128.852963872
  0
LINE
  5
EA
100
AcDbEntity
  8
Gravur
  6
ByLayer
 62
  256
370
   -1
100
AcDbLine
 10
261.415416688
 20
128.852963872
 11
261.395781488
 21
128.852974256
  0
SPLINE
  5
EB
100
AcDbEntity
  8
Gravur
  6
ByLayer
 62
  256
370
   -1
100
AcDbSpline
210
0
220
0
230
0
 70
    8
 71
    3
 72
    8
 73
    4
 74
    0
 42
1e-07
 43
1e-07
 40
0
 40
0
 40
0
 40
0
 40
1
 40
1
 40
1
 40
1
 10
252.119474864
 20
131.75415152
 30
0
 10
252.119474864
 20
131.75415152
 30
0
 10
244.680142208
 20
146.814588752
 30
0
 10
239.682586384
 20
145.514094704
 30
0
  0
SPLINE
  5
EC
100
AcDbEntity
  8
Gravur
  6
ByLayer
 62
  256
370
   -1
100
AcDbSpline
210
0
220
0
230
0
 70
    8
 71
    3
 72
    8
 73
    4
 74
    0
 42
1e-07
 43
1e-07
 40
0
 40
0
 40
0
 40
0
 40
1
 40
1
 40
1
 40
1
 10
239.682586384
 20
145.514094704
 30
0
 10
234.685031504
 20
144.213599712
 30
0
 10
235.051832144
 20
125.403401904
 30
0
 10
235.051832144
 20
125.403401904
 30
0
  0
SPLINE
  5
ED
100
AcDbEntity
  8
Gravur
  6
ByLayer
 62
  256
370
   -1
100
AcDbSpline
210
0
220
0
230
0
 70
    8
 71
    3
 72
    8
 73
    4
 74
    0
 42
1e-07
 43
1e-07
 40
0
 40
0
 40
0
 40
0
 40
1
 40
1
 40
1
 40
1
 10
235.051832144
 20
125.403401904
 30
0
 10
240.344575824
 20
130.097373936
 30
0
 10
246.12351632
 20
131.631045424
 30
0
 10
252.119474864
 20
131.75415152
 30
0
  0
LINE
  5
EE
100
AcDbEntity
  8
Gravur
  6
ByLayer
 62
  256
370
   -1
100
AcDbLine
 10
252.119474864
 20
131.75415152
 11
252.119474864
 21
131.75415152
  0
SPLINE
  5
EF
100
AcDbEntity
  8
Gravur
  6
ByLayer
 62
  256
370
   -1
100
AcDbSpline
210
0
220
0
230
0
 70
    8
 71
    3
 72
    8
 73
    4
 74
    0
 42
1e-07
 43
1e-07
 40
0
 40
0
 40
0
 40
0
 40
1
 40
1
 40
1
 40
1
 10
270.379679392
 20
131.75415152
 30
0
 10
270.379679392
 20
131.75415152
 30
0
 10
277.819004496
 20
146.814588752
 30
0
 10
282.816567872
 20
145.514094704
 30
0
  0
SPLINE
  5
F0
100
AcDbEntity
  8
Gravur
  6
ByLayer
 62
  256
370
   -1
100
AcDbSpline
210
0
220
0
230
0
 70
    8
 71
    3
 72
    8
 73
    4
 74
    0
 42
1e-07
 43
1e-07
 40
0
 40
0
 40
0
 40
0
 40
1
 40
1
 40
1
 40
1
 10
282.816567872
 20
145.514094704
 30
0
 10
287.814122752
 20
144.213599712
 30
0
 10
287.447324
 20
125.403401904
 30
0
 10
287.447324
 20
125.403401904
 30
0
  0
SPLINE
  5
F1
100
AcDbEntity
  8
Gravur
  6
ByLayer
 62
  256
370
   -1
100
AcDbSpline
210
0
220
0
230
0
 70
    8
 71
    3
 72
    8
 73
    4
 74
    0
 42
1e-07
 43
1e-07
 40
0
 40
0
 40
0
 40
0
 40
1
 40
1
 40
1
 40
1
 10
287.447324
 20
125.403401904
 30
0
 10
282.154581264
 20
130.097373936
 30
0
 10
276.375637936
 20
131.631045424
 30
0
 10
270.379679392
 20
131.75415152
 30
0
  0
LINE
  5
F2
100
AcDbEntity
  8
Gravur
  6
ByLayer
 62
  256
370
   -1
100
AcDbLine
 10
270.379679392
 20
131.75415152
 11
270.379679392
 21
131.75415152
  0
SPLINE
  5
F3
100
AcDbEntity
  8
Gravur
  6
ByLayer
 62
  256
370
   -1
100
AcDbSpline
210
0
220
0
230
0
 70
    8
 71
    3
 72
    8
 73
    4
 74
    0
 42
1e-07
 43
1e-07
 40
0
 40
0
 40
0
 40
0
 40
1
 40
1
 40
1
 40
1
 10
244.180821904
 20
205.715230864
 30
0
 10
238.348299968
 20
205.671144176
 30
0
 10
233
 20
194.667218432
 30
0
 10
233
 20
194.667218432
 30
0
  0
LINE
  5
F4
100
AcDbEntity
  8
Gravur
  6
ByLayer
 62
  256
370
   -1
100
AcDbLine
 10
233
 20
194.667218432
 11
233
 21
185.867106
  0
SPLINE
  5
F5
100
AcDbEntity
  8
Gravur
  6
ByLayer
 62
  256
370
   -1
100
AcDbSpline
210
0
220
0
230
0
 70
    8
 71
    3
 72
    8
 73
    4
 74
    0
 42
1e-07
 43
1e-07
 40
0
 40
0
 40
0
 40
0
 40
1
 40
1
 40
1
 40
1
 10
233
 20
185.867106
 30
0
 10
233
 20
185.867106
 30
0
 10
237.928217136
 20
197.861125376
 30
0
 10
243.647988656
 20
198.705113296
 30
0
  0
SPLINE
  5
F6
100
AcDbEntity
  8
Gravur
  6
ByLayer
 62
  256
370
   -1
100
AcDbSpline
210
0
220
0
230
0
 70
    8
 71
    3
 72
    8
 73
    4
 74
    0
 42
1e-07
 43
1e-07
 40
0
 40
0
 40
0
 40
0
 40
1
 40
1
 40
1
 40
1
 10
243.647988656
 20
198.705113296
 30
0
 10
247.335951216
 20
199.249295312
 30
0
 10
251.53956528
 20
194.30963784
 30
0
 10
255.378691504
 20
190.729230864
 30
0
  0
SPLINE
  5
F7
100
AcDbEntity
  8
Gravur
  6
ByLayer
 62
  256
370
   -1
100
AcDbSpline
210
0
220
0
230
0
 70
    8
 71
    3
 72
    8
 73
    4
 74
    0
 42
1e-07
 43
1e-07
 40
0
 40
0
 40
0
 40
0
 40
1
 40
1
 40
1
 40
1
 10
255.378691504
 20
190.729230864
 30
0
 10
255.481634704
 20
189.924902272
 30
0
 10
255.544682576
 20
189.070825824
 30
0
 10
255.561855824
 20
188.189936
 30
0
  0
SPLINE
  5
F8
100
AcDbEntity
  8
Gravur
  6
ByLayer
 62
  256
370
   -1
100
AcDbSpline
210
0
220
0
230
0
 70
    8
 71
    3
 72
    8
 73
    4
 74
    0
 42
1e-07
 43
1e-07
 40
0
 40
0
 40
0
 40
0
 40
1
 40
1
 40
1
 40
1
 10
255.561855824
 20
188.189936
 30
0
 10
248.953629264
 20
190.47373632
 30
0
 10
238.128574528
 20
189.480013952
 30
0
 10
233
 20
184.410134512
 30
0
  0
LINE
  5
F9
100
AcDbEntity
  8
Gravur
  6
ByLayer
 62
  256
370
   -1
100
AcDbLine
 10
233
 20
184.410134512
 11
233
 21
179.381498432
  0
SPLINE
  5
FA
100
AcDbEntity
  8
Gravur
  6
ByLayer
 62
  256
370
   -1
100
AcDbSpline
210
0
220
0
230
0
 70
    8
 71
    3
 72
    8
 73
    4
 74
    0
 42
1e-07
 43
1e-07
 40
0
 40
0
 40
0
 40
0
 40
1
 40
1
 40
1
 40
1
 10
233
 20
179.381498432
 30
0
 10
234.492464944
 20
176.608526752
 30
0
 10
247.295285584
 20
168.294421392
 30
0
 10
255.42864704
 20
184.734830864
 30
0
  0
SPLINE
  5
FB
100
AcDbEntity
  8
Gravur
  6
ByLayer
 62
  256
370
   -1
100
AcDbSpline
210
0
220
0
230
0
 70
    8
 71
    3
 72
    8
 73
    4
 74
    0
 42
1e-07
 43
1e-07
 40
0
 40
0
 40
0
 40
0
 40
1
 40
1
 40
1
 40
1
 10
255.42864704
 20
184.734830864
 30
0
 10
254.95269168
 20
179.142273728
 30
0
 10
253.20552704
 20
173.140401024
 30
0
 10
251.057727856
 20
169.990271136
 30
0
  0
SPLINE
  5
FC
100
AcDbEntity
  8
Gravur
  6
ByLayer
 62
  256
370
   -1
100
AcDbSpline
210
0
220
0
230
0
 70
    8
 71
    3
 72
    8
 73
    4
 74
    0
 42
1e-07
 43
1e-07
 40
0
 40
0
 40
0
 40
0
 40
1
 40
1
 40
1
 40
1
 10
251.057727856
 20
169.990271136
 30
0
 10
248.01235648
 20
165.523689824
 30
0
 10
246.244866576
 20
164.811575872
 30
0
 10
242.066127856
 20
165.094844784
 30
0
  0
SPLINE
  5
FD
100
AcDbEntity
  8
Gravur
  6
ByLayer
 62
  256
370
   -1
100
AcDbSpline
210
0
220
0
230
0
 70
    8
 71
    3
 72
    8
 73
    4
 74
    0
 42
1e-07
 43
1e-07
 40
0
 40
0
 40
0
 40
0
 40
1
 40
1
 40
1
 40
1
 10
242.066127856
 20
165.094844784
 30
0
 10
237.887391968
 20
165.378113696
 30
0
 10
233
 20
177.200203296
 30
0
 10
233
 20
177.200203296
 30
0
  0
LINE
  5
FE
100
AcDbEntity
  8
Gravur
  6
ByLayer
 62
  256
370
   -1
100
AcDbLine
 10
233
 20
177.200203296
 11
233
 21
136.9128472
  0
SPLINE
  5
FF
100
AcDbEntity
  8
Gravur
  6
ByLayer
 62
  256
370
   -1
100
AcDbSpline
210
0
220
0
230
0
 70
    8
 71
    3
 72
    8
 73
    4
 74
    0
 42
1e-07
 43
1e-07
 40
0
 40
0
 40
0
 40
0
 40
1
 40
1
 40
1
 40
1
 10
233
 20
136.9128472
 30
0
 10
234.247279824
 20
145.815993456
 30
0
 10
237.664173728
 20
147.9132556
 30
0
 10
241.00878272
 20
148.427082352
 30
0
  0
SPLINE
  5
100
100
AcDbEntity
  8
Gravur
  6
ByLayer
 62
  256
370
   -1
100
AcDbSpline
210
0
220
0
230
0
 70
    8
 71
    3
 72
    8
 73
    4
 74
    0
 42
1e-07
 43
1e-07
 40
0
 40
0
 40
0
 40
0
 40
1
 40
1
 40
1
 40
1
 10
241.00878272
 20
148.427082352
 30
0
 10
246.781277584
 20
149.313899552
 30
0
 10
249.909731344
 20
133.474392336
 30
0
 10
261.248207856
 20
133.474392336
 30
0
  0
SPLINE
  5
101
100
AcDbEntity
  8
Gravur
  6
ByLayer
 62
  256
370
   -1
100
AcDbSpline
210
0
220
0
230
0
 70
    8
 71
    3
 72
    8
 73
    4
 74
    0
 42
1e-07
 43
1e-07
 40
0
 40
0
 40
0
 40
0
 40
1
 40
1
 40
1
 40
1
 10
261.248207856
 20
133.474392336
 30
0
 10
272.5866872
 20
133.474392336
 30
0
 10
275.723466096
 20
149.313899552
 30
0
 10
281.495961904
 20
148.427082352
 30
0
  0
SPLINE
  5
102
100
AcDbEntity
  8
Gravur
  6
ByLayer
 62
  256
370
   -1
100
AcDbSpline
210
0
220
0
230
0
 70
    8
 71
    3
 72
    8
 73
    4
 74
    0
 42
1e-07
 43
1e-07
 40
0
 40
0
 40
0
 40
0
 40
1
 40
1
 40
1
 40
1
 10
281.495961904
 20
148.427082352
 30
0
 10
284.840569952
 20
147.9132556
 30
0
 10
288.583521456
 20
145.815993456
 30
0
 10
289.830799392
 20
136.9128472
 30
0
  0
LINE
  5
103
100
AcDbEntity
  8
Gravur
  6
ByLayer
 62
  256
370
   -1
100
AcDbLine
 10
289.830799392
 20
136.9128472
 11
289.830799392
 21
177.200203296
  0
SPLINE
  5
104
100
AcDbEntity
  8
Gravur
  6
ByLayer
 62
  256
370
   -1
100
AcDbSpline
210
0
220
0
230
0
 70
    8
 71
    3
 72
    8
 73
    4
 74
    0
 42
1e-07
 43
1e-07
 40
0
 40
0
 40
0
 40
0
 40
1
 40
1
 40
1
 40
1
 10
289.830799392
 20
177.200203296
 30
0
 10
289.830799392
 20
177.200203296
 30
0
 10
284.617352656
 20
165.378113696
 30
0
 10
280.438612992
 20
165.094844784
 30
0
  0
SPLINE
  5
105
100
AcDbEntity
  8
Gravur
  6
ByLayer
 62
  256
370
   -1
100
AcDbSpline
210
0
220
0
230
0
 70
    8
 71
    3
 72
    8
 73
    4
 74
    0
 42
1e-07
 43
1e-07
 40
0
 40
0
 40
0
 40
0
 40
1
 40
1
 40
1
 40
1
 10
280.438612992
 20
165.094844784
 30
0
 10
276.259874272
 20
164.811575872
 30
0
 10
274.48406112
 20
165.523689824
 30
0
 10
271.438687856
 20
169.990271136
 30
0
  0
SPLINE
  5
106
100
AcDbEntity
  8
Gravur
  6
ByLayer
 62
  256
370
   -1
100
AcDbSpline
210
0
220
0
230
0
 70
    8
 71
    3
 72
    8
 73
    4
 74
    0
 42
1e-07
 43
1e-07
 40
0
 40
0
 40
0
 40
0
 40
1
 40
1
 40
1
 40
1
 10
271.438687856
 20
169.990271136
 30
0
 10
269.29315616
 20
173.13708192
 30
0
 10
267.552145456
 20
179.13067952
 30
0
 10
267.07609664
 20
184.718179648
 30
0
  0
SPLINE
  5
107
100
AcDbEntity
  8
Gravur
  6
ByLayer
 62
  256
370
   -1
100
AcDbSpline
210
0
220
0
230
0
 70
    8
 71
    3
 72
    8
 73
    4
 74
    0
 42
1e-07
 43
1e-07
 40
0
 40
0
 40
0
 40
0
 40
1
 40
1
 40
1
 40
1
 10
267.07609664
 20
184.718179648
 30
0
 10
275.20971392
 20
168.298470208
 30
0
 10
288.33880928
 20
176.609395232
 30
0
 10
289.830799392
 20
179.381498432
 30
0
  0
LINE
  5
108
100
AcDbEntity
  8
Gravur
  6
ByLayer
 62
  256
370
   -1
100
AcDbLine
 10
289.830799392
 20
179.381498432
 11
289.830799392
 21
184.410134512
  0
SPLINE
  5
109
100
AcDbEntity
  8
Gravur
  6
ByLayer
 62
  256
370
   -1
100
AcDbSpline
210
0
220
0
230
0
 70
    8
 71
    3
 72
    8
 73
    4
 74
    0
 42
1e-07
 43
1e-07
 40
0
 40
0
 40
0
 40
0
 40
1
 40
1
 40
1
 40
1
 10
289.830799392
 20
184.410134512
 30
0
 10
284.702454256
 20
189.479800608
 30
0
 10
273.55118144
 20
190.47336344
 30
0
 10
266.942887856
 20
188.189936
 30
0
  0
SPLINE
  5
10A
100
AcDbEntity
  8
Gravur
  6
ByLayer
 62
  256
370
   -1
100
AcDbSpline
210
0
220
0
230
0
 70
    8
 71
    3
 72
    8
 73
    4
 74
    0
 42
1e-07
 43
1e-07
 40
0
 40
0
 40
0
 40
0
 40
1
 40
1
 40
1
 40
1
 10
266.942887856
 20
188.189936
 30
0
 10
266.960311264
 20
189.073969344
 30
0
 10
267.022429296
 20
189.930683328
 30
0
 10
267.12605312
 20
190.737556
 30
0
  0
SPLINE
  5
10B
100
AcDbEntity
  8
Gravur
  6
ByLayer
 62
  256
370
   -1
100
AcDbSpline
210
0
220
0
230
0
 70
    8
 71
    3
 72
    8
 73
    4
 74
    0
 42
1e-07
 43
1e-07
 40
0
 40
0
 40
0
 40
0
 40
1
 40
1
 40
1
 40
1
 10
267.12605312
 20
190.737556
 30
0
 10
270.963678384
 20
194.317545728
 30
0
 10
275.162257152
 20
199.249031936
 30
0
 10
278.84843744
 20
198.705113296
 30
0
  0
SPLINE
  5
10C
100
AcDbEntity
  8
Gravur
  6
ByLayer
 62
  256
370
   -1
100
AcDbSpline
210
0
220
0
230
0
 70
    8
 71
    3
 72
    8
 73
    4
 74
    0
 42
1e-07
 43
1e-07
 40
0
 40
0
 40
0
 40
0
 40
1
 40
1
 40
1
 40
1
 10
278.84843744
 20
198.705113296
 30
0
 10
284.56820896
 20
197.861125376
 30
0
 10
289.830799392
 20
185.867106
 30
0
 10
289.830799392
 20
185.867106
 30
0
  0
LINE
  5
10D
100
AcDbEntity
  8
Gravur
  6
ByLayer
 62
  256
370
   -1
100
AcDbLine
 10
289.830799392
 20
185.867106
 11
289.830799392
 21
194.667218432
  0
SPLINE
  5
10E
100
AcDbEntity
  8
Gravur
  6
ByLayer
 62
  256
370
   -1
100
AcDbSpline
210
0
220
0
230
0
 70
    8
 71
    3
 72
    8
 73
    4
 74
    0
 42
1e-07
 43
1e-07
 40
0
 40
0
 40
0
 40
0
 40
1
 40
1
 40
1
 40
1
 10
289.830799392
 20
194.667218432
 30
0
 10
289.830799392
 20
194.667218432
 30
0
 10
284.148118576
 20
205.671144176
 30
0
 10
278.31559664
 20
205.715230864
 30
0
  0
SPLINE
  5
10F
100
AcDbEntity
  8
Gravur
  6
ByLayer
 62
  256
370
   -1
100
AcDbSpline
210
0
220
0
230
0
 70
    8
 71
    3
 72
    8
 73
    4
 74
    0
 42
1e-07
 43
1e-07
 40
0
 40
0
 40
0
 40
0
 40
1
 40
1
 40
1
 40
1
 10
278.31559664
 20
205.715230864
 30
0
 10
272.483071872
 20
205.75931472
 30
0
 10
264.425636336
 20
192.352714512
 30
0
 10
261.248207856
 20
192.352714512
 30
0
  0
SPLINE
  5
110
100
AcDbEntity
  8
Gravur
  6
ByLayer
 62
  256
370
   -1
100
AcDbSpline
210
0
220
0
230
0
 70
    8
 71
    3
 72
    8
 73
    4
 74
    0
 42
1e-07
 43
1e-07
 40
0
 40
0
 40
0
 40
0
 40
1
 40
1
 40
1
 40
1
 10
261.248207856
 20
192.352714512
 30
0
 10
258.070781264
 20
192.352714512
 30
0
 10
250.01334384
 20
205.75931472
 30
0
 10
244.180821904
 20
205.715230864
 30
0
  0
LINE
  5
111
100
AcDbEntity
  8
Gravur
  6
ByLayer
 62
  256
370
   -1
100
AcDbLine
 10
244.180821904
 20
205.715230864
 11
244.180821904
 21
205.715230864
  0
SPLINE
  5
112
100
AcDbEntity
  8
Gravur
  6
ByLayer
 62
  256
370
   -1
100
AcDbSpline
210
0
220
0
230
0
 70
    8
 71
    3
 72
    8
 73
    4
 74
    0
 42
1e-07
 43
1e-07
 40
0
 40
0
 40
0
 40
0
 40
1
 40
1
 40
1
 40
1
 10
259.000307856
 20
188.914259648
 30
0
 10
259.000307856
 20
188.914259648
 30
0
 10
260.498162096
 20
187.848588432
 30
0
 10
261.248207856
 20
187.848588432
 30
0
  0
SPLINE
  5
113
100
AcDbEntity
  8
Gravur
  6
ByLayer
 62
  256
370
   -1
100
AcDbSpline
210
0
220
0
230
0
 70
    8
 71
    3
 72
    8
 73
    4
 74
    0
 42
1e-07
 43
1e-07
 40
0
 40
0
 40
0
 40
0
 40
1
 40
1
 40
1
 40
1
 10
261.248207856
 20
187.848588432
 30
0
 10
261.998253616
 20
187.848588432
 30
0
 10
263.496107856
 20
188.914259648
 30
0
 10
263.496107856
 20
188.914259648
 30
0
  0
LINE
  5
114
100
AcDbEntity
  8
Gravur
  6
ByLayer
 62
  256
370
   -1
100
AcDbLine
 10
263.496107856
 20
188.914259648
 11
264.953077456
 21
175.551743296
  0
SPLINE
  5
115
100
AcDbEntity
  8
Gravur
  6
ByLayer
 62
  256
370
   -1
100
AcDbSpline
210
0
220
0
230
0
 70
    8
 71
    3
 72
    8
 73
    4
 74
    0
 42
1e-07
 43
1e-07
 40
0
 40
0
 40
0
 40
0
 40
1
 40
1
 40
1
 40
1
 10
264.953077456
 20
175.551743296
 30
0
 10
263.863476784
 20
175.442024064
 30
0
 10
262.26021456
 20
174.051238304
 30
0
 10
261.248207856
 20
172.504589648
 30
0
  0
SPLINE
  5
116
100
AcDbEntity
  8
Gravur
  6
ByLayer
 62
  256
370
   -1
100
AcDbSpline
210
0
220
0
230
0
 70
    8
 71
    3
 72
    8
 73
    4
 74
    0
 42
1e-07
 43
1e-07
 40
0
 40
0
 40
0
 40
0
 40
1
 40
1
 40
1
 40
1
 10
261.248207856
 20
172.504589648
 30
0
 10
260.236203984
 20
174.051238304
 30
0
 10
258.63294176
 20
175.442024064
 30
0
 10
257.543338256
 20
175.551743296
 30
0
  0
LINE
  5
117
100
AcDbEntity
  8
Gravur
  6
ByLayer
 62
  256
370
   -1
100
AcDbLine
 10
257.543338256
 20
175.551743296
 11
259.000307856
 21
188.914259648
  0
SPLINE
  5
118
100
AcDbEntity
  8
Gravur
  6
ByLayer
 62
  256
370
   -1
100
AcDbSpline
210
0
220
0
230
0
 70
    8
 71
    3
 72
    8
 73
    4
 74
    0
 42
1e-07
 43
1e-07
 40
0
 40
0
 40
0
 40
0
 40
1
 40
1
 40
1
 40
1
 10
247.610947856
 20
185.642316
 30
0
 10
249.02807216
 20
185.63123344
 30
0
 10
250.451568464
 20
185.519484608
 30
0
 10
251.856986224
 20
185.342596
 30
0
  0
SPLINE
  5
119
100
AcDbEntity
  8
Gravur
  6
ByLayer
 62
  256
370
   -1
100
AcDbSpline
210
0
220
0
230
0
 70
    8
 71
    3
 72
    8
 73
    4
 74
    0
 42
1e-07
 43
1e-07
 40
0
 40
0
 40
0
 40
0
 40
1
 40
1
 40
1
 40
1
 10
251.856986224
 20
185.342596
 30
0
 10
248.768093616
 20
181.490565296
 30
0
 10
246.339332656
 20
178.969336704
 30
0
 10
243.389891504
 20
178.723779648
 30
0
  0
SPLINE
  5
11A
100
AcDbEntity
  8
Gravur
  6
ByLayer
 62
  256
370
   -1
100
AcDbSpline
210
0
220
0
230
0
 70
    8
 71
    3
 72
    8
 73
    4
 74
    0
 42
1e-07
 43
1e-07
 40
0
 40
0
 40
0
 40
0
 40
1
 40
1
 40
1
 40
1
 10
243.389891504
 20
178.723779648
 30
0
 10
240.44045696
 20
178.478222592
 30
0
 10
236.150582064
 20
179.391231072
 30
0
 10
235.447311504
 20
181.895816
 30
0
  0
SPLINE
  5
11B
100
AcDbEntity
  8
Gravur
  6
ByLayer
 62
  256
370
   -1
100
AcDbSpline
210
0
220
0
230
0
 70
    8
 71
    3
 72
    8
 73
    4
 74
    0
 42
1e-07
 43
1e-07
 40
0
 40
0
 40
0
 40
0
 40
1
 40
1
 40
1
 40
1
 10
235.447311504
 20
181.895816
 30
0
 10
239.138217456
 20
184.779855888
 30
0
 10
243.359596656
 20
185.675581616
 30
0
 10
247.610947856
 20
185.642316
 30
0
  0
LINE
  5
11C
100
AcDbEntity
  8
Gravur
  6
ByLayer
 62
  256
370
   -1
100
AcDbLine
 10
247.610947856
 20
185.642316
 11
247.610947856
 21
185.642316
  0
SPLINE
  5
11D
100
AcDbEntity
  8
Gravur
  6
ByLayer
 62
  256
370
   -1
100
AcDbSpline
210
0
220
0
230
0
 70
    8
 71
    3
 72
    8
 73
    4
 74
    0
 42
1e-07
 43
1e-07
 40
0
 40
0
 40
0
 40
0
 40
1
 40
1
 40
1
 40
1
 10
274.885467856
 20
185.642316
 30
0
 10
279.13682944
 20
185.675581616
 30
0
 10
283.358198256
 20
184.779855888
 30
0
 10
287.04910704
 20
181.895816
 30
0
  0
SPLINE
  5
11E
100
AcDbEntity
  8
Gravur
  6
ByLayer
 62
  256
370
   -1
100
AcDbSpline
210
0
220
0
230
0
 70
    8
 71
    3
 72
    8
 73
    4
 74
    0
 42
1e-07
 43
1e-07
 40
0
 40
0
 40
0
 40
0
 40
1
 40
1
 40
1
 40
1
 10
287.04910704
 20
181.895816
 30
0
 10
286.34583648
 20
179.391231072
 30
0
 10
282.06428672
 20
178.478222592
 30
0
 10
279.11485312
 20
178.723779648
 30
0
  0
SPLINE
  5
11F
100
AcDbEntity
  8
Gravur
  6
ByLayer
 62
  256
370
   -1
100
AcDbSpline
210
0
220
0
230
0
 70
    8
 71
    3
 72
    8
 73
    4
 74
    0
 42
1e-07
 43
1e-07
 40
0
 40
0
 40
0
 40
0
 40
1
 40
1
 40
1
 40
1
 10
279.11485312
 20
178.723779648
 30
0
 10
276.165411024
 20
178.969336704
 30
0
 10
273.736648176
 20
181.490565296
 30
0
 10
270.647757456
 20
185.342596
 30
0
  0
SPLINE
  5
120
100
AcDbEntity
  8
Gravur
  6
ByLayer
 62
  256
370
   -1
100
AcDbSpline
210
0
220
0
230
0
 70
    8
 71
    3
 72
    8
 73
    4
 74
    0
 42
1e-07
 43
1e-07
 40
0
 40
0
 40
0
 40
0
 40
1
 40
1
 40
1
 40
1
 10
270.647757456
 20
185.342596
 30
0
 10
272.053175216
 20
185.519484608
 30
0
 10
273.468353936
 20
185.631227776
 30
0
 10
274.885467856
 20
185.642316
 30
0
  0
LINE
  5
121
100
AcDbEntity
  8
Gravur
  6
ByLayer
 62
  256
370
   -1
100
AcDbLine
 10
274.885467856
 20
185.642316
 11
274.885467856
 21
185.642316
  0
SPLINE
  5
122
100
AcDbEntity
  8
Gravur
  6
ByLayer
 62
  256
370
   -1
100
AcDbSpline
210
0
220
0
230
0
 70
    8
 71
    3
 72
    8
 73
    4
 74
    0
 42
1e-07
 43
1e-07
 40
0
 40
0
 40
0
 40
0
 40
1
 40
1
 40
1
 40
1
 10
257.393478256
 20
172.07165992
 30
0
 10
258.519453136
 20
172.102607072
 30
0
 10
259.706648304
 20
170.924885888
 30
0
 10
261.248207856
 20
169.590644784
 30
0
  0
SPLINE
  5
123
100
AcDbEntity
  8
Gravur
  6
ByLayer
 62
  256
370
   -1
100
AcDbSpline
210
0
220
0
230
0
 70
    8
 71
    3
 72
    8
 73
    4
 74
    0
 42
1e-07
 43
1e-07
 40
0
 40
0
 40
0
 40
0
 40
1
 40
1
 40
1
 40
1
 10
261.248207856
 20
169.590644784
 30
0
 10
263.145515696
 20
171.23278848
 30
0
 10
264.51004032
 20
172.636782688
 30
0
 10
265.87721664
 20
171.84686992
 30
0
  0
LINE
  5
124
100
AcDbEntity
  8
Gravur
  6
ByLayer
 62
  256
370
   -1
100
AcDbLine
 10
265.87721664
 20
171.84686992
 11
266.41005744
 21
166.685026
  0
SPLINE
  5
125
100
AcDbEntity
  8
Gravur
  6
ByLayer
 62
  256
370
   -1
100
AcDbSpline
210
0
220
0
230
0
 70
    8
 71
    3
 72
    8
 73
    4
 74
    0
 42
1e-07
 43
1e-07
 40
0
 40
0
 40
0
 40
0
 40
1
 40
1
 40
1
 40
1
 10
266.41005744
 20
166.685026
 30
0
 10
264.54993376
 20
166.760960416
 30
0
 10
262.2873168
 20
165.25649912
 30
0
 10
261.248207856
 20
163.246571136
 30
0
  0
SPLINE
  5
126
100
AcDbEntity
  8
Gravur
  6
ByLayer
 62
  256
370
   -1
100
AcDbSpline
210
0
220
0
230
0
 70
    8
 71
    3
 72
    8
 73
    4
 74
    0
 42
1e-07
 43
1e-07
 40
0
 40
0
 40
0
 40
0
 40
1
 40
1
 40
1
 40
1
 10
261.248207856
 20
163.246571136
 30
0
 10
260.2091008
 20
165.25649912
 30
0
 10
257.946492336
 20
166.760960416
 30
0
 10
256.086368656
 20
166.685026
 30
0
  0
LINE
  5
127
100
AcDbEntity
  8
Gravur
  6
ByLayer
 62
  256
370
   -1
100
AcDbLine
 10
256.086368656
 20
166.685026
 11
256.619201904
 21
171.84686992
  0
SPLINE
  5
128
100
AcDbEntity
  8
Gravur
  6
ByLayer
 62
  256
370
   -1
100
AcDbSpline
210
0
220
0
230
0
 70
    8
 71
    3
 72
    8
 73
    4
 74
    0
 42
1e-07
 43
1e-07
 40
0
 40
0
 40
0
 40
0
 40
1
 40
1
 40
1
 40
1
 10
256.619201904
 20
171.84686992
 30
0
 10
256.875543216
 20
171.994979744
 30
0
 10
257.1336432
 20
172.064517616
 30
0
 10
257.393478256
 20
172.07165992
 30
0
  0
LINE
  5
129
100
AcDbEntity
  8
Gravur
  6
ByLayer
 62
  256
370
   -1
100
AcDbLine
 10
257.393478256
 20
172.07165992
 11
257.393478256
 21
172.07165992
  0
SPLINE
  5
12A
100
AcDbEntity
  8
Gravur
  6
ByLayer
 62
  256
370
   -1
100
AcDbSpline
210
0
220
0
230
0
 70
    8
 71
    3
 72
    8
 73
    4
 74
    0
 42
1e-07
 43
1e-07
 40
0
 40
0
 40
0
 40
0
 40
1
 40
1
 40
1
 40
1
 10
233
 20
167.87557992
 30
0
 10
238.268201568
 20
160.426568432
 30
0
 10
244.749695184
 20
153.622104096
 30
0
 10
252.78112352
 20
166.551817216
 30
0
  0
SPLINE
  5
12B
100
AcDbEntity
  8
Gravur
  6
ByLayer
 62
  256
370
   -1
100
AcDbSpline
210
0
220
0
230
0
 70
    8
 71
    3
 72
    8
 73
    4
 74
    0
 42
1e-07
 43
1e-07
 40
0
 40
0
 40
0
 40
0
 40
1
 40
1
 40
1
 40
1
 10
252.78112352
 20
166.551817216
 30
0
 10
252.78112352
 20
166.551817216
 30
0
 10
247.569817776
 20
149.961374992
 30
0
 10
242.59064352
 20
150.674982352
 30
0
  0
SPLINE
  5
12C
100
AcDbEntity
  8
Gravur
  6
ByLayer
 62
  256
370
   -1
100
AcDbSpline
210
0
220
0
230
0
 70
    8
 71
    3
 72
    8
 73
    4
 74
    0
 42
1e-07
 43
1e-07
 40
0
 40
0
 40
0
 40
0
 40
1
 40
1
 40
1
 40
1
 10
242.59064352
 20
150.674982352
 30
0
 10
238.246101584
 20
151.297638144
 30
0
 10
233
 20
167.87557992
 30
0
 10
233
 20
167.87557992
 30
0
  0
LINE
  5
12D
100
AcDbEntity
  8
Gravur
  6
ByLayer
 62
  256
370
   -1
100
AcDbLine
 10
233
 20
167.87557992
 11
233
 21
167.87557992
  0
SPLINE
  5
12E
100
AcDbEntity
  8
Gravur
  6
ByLayer
 62
  256
370
   -1
100
AcDbSpline
210
0
220
0
230
0
 70
    8
 71
    3
 72
    8
 73
    4
 74
    0
 42
1e-07
 43
1e-07
 40
0
 40
0
 40
0
 40
0
 40
1
 40
1
 40
1
 40
1
 10
288.372867856
 20
167.87557992
 30
0
 10
288.372867856
 20
167.87557992
 30
0
 10
284.250334896
 20
151.297638144
 30
0
 10
279.90578352
 20
150.674982352
 30
0
  0
SPLINE
  5
12F
100
AcDbEntity
  8
Gravur
  6
ByLayer
 62
  256
370
   -1
100
AcDbSpline
210
0
220
0
230
0
 70
    8
 71
    3
 72
    8
 73
    4
 74
    0
 42
1e-07
 43
1e-07
 40
0
 40
0
 40
0
 40
0
 40
1
 40
1
 40
1
 40
1
 10
279.90578352
 20
150.674982352
 30
0
 10
274.926615872
 20
149.961374992
 30
0
 10
269.71530352
 20
166.551817216
 30
0
 10
269.71530352
 20
166.551817216
 30
0
  0
SPLINE
  5
130
100
AcDbEntity
  8
Gravur
  6
ByLayer
 62
  256
370
   -1
100
AcDbSpline
210
0
220
0
230
0
 70
    8
 71
    3
 72
    8
 73
    4
 74
    0
 42
1e-07
 43
1e-07
 40
0
 40
0
 40
0
 40
0
 40
1
 40
1
 40
1
 40
1
 10
269.71530352
 20
166.551817216
 30
0
 10
277.746733744
 20
153.622104096
 30
0
 10
283.10466912
 20
160.426568432
 30
0
 10
288.372867856
 20
167.87557992
 30
0
  0
LINE
  5
131
100
AcDbEntity
  8
Gravur
  6
ByLayer
 62
  256
370
   -1
100
AcDbLine
 10
288.372867856
 20
167.87557992
 11
288.372867856
 21
167.87557992
  0
SPLINE
  5
132
100
AcDbEntity
  8
Gravur
  6
ByLayer
 62
  256
370
   -1
100
AcDbSpline
210
0
220
0
230
0
 70
    8
 71
    3
 72
    8
 73
    4
 74
    0
 42
1e-07
 43
1e-07
 40
0
 40
0
 40
0
 40
0
 40
1
 40
1
 40
1
 40
1
 10
256.311155824
 20
162.397364784
 30
0
 10
257.7482344
 20
162.395233232
 30
0
 10
259.287935216
 20
162.016097344
 30
0
 10
261.248207856
 20
160.066209648
 30
0
  0
SPLINE
  5
133
100
AcDbEntity
  8
Gravur
  6
ByLayer
 62
  256
370
   -1
100
AcDbSpline
210
0
220
0
230
0
 70
    8
 71
    3
 72
    8
 73
    4
 74
    0
 42
1e-07
 43
1e-07
 40
0
 40
0
 40
0
 40
0
 40
1
 40
1
 40
1
 40
1
 10
261.248207856
 20
160.066209648
 30
0
 10
263.861907856
 20
162.666057392
 30
0
 10
265.72848944
 20
162.464206592
 30
0
 10
267.600612304
 20
162.314109648
 30
0
  0
LINE
  5
134
100
AcDbEntity
  8
Gravur
  6
ByLayer
 62
  256
370
   -1
100
AcDbLine
 10
267.600612304
 20
162.314109648
 11
268.000232992
 21
157.951518432
  0
SPLINE
  5
135
100
AcDbEntity
  8
Gravur
  6
ByLayer
 62
  256
370
   -1
100
AcDbSpline
210
0
220
0
230
0
 70
    8
 71
    3
 72
    8
 73
    4
 74
    0
 42
1e-07
 43
1e-07
 40
0
 40
0
 40
0
 40
0
 40
1
 40
1
 40
1
 40
1
 10
268.000232992
 20
157.951518432
 30
0
 10
264.849906752
 20
156.401726256
 30
0
 10
262.76959696
 20
154.206198432
 30
0
 10
261.248207856
 20
151.599119648
 30
0
  0
SPLINE
  5
136
100
AcDbEntity
  8
Gravur
  6
ByLayer
 62
  256
370
   -1
100
AcDbSpline
210
0
220
0
230
0
 70
    8
 71
    3
 72
    8
 73
    4
 74
    0
 42
1e-07
 43
1e-07
 40
0
 40
0
 40
0
 40
0
 40
1
 40
1
 40
1
 40
1
 10
261.248207856
 20
151.599119648
 30
0
 10
259.72682064
 20
154.206198432
 30
0
 10
257.654834096
 20
156.401726256
 30
0
 10
254.504507856
 20
157.951518432
 30
0
  0
LINE
  5
137
100
AcDbEntity
  8
Gravur
  6
ByLayer
 62
  256
370
   -1
100
AcDbLine
 10
254.504507856
 20
157.951518432
 11
254.895816624
 21
162.314109648
  0
SPLINE
  5
138
100
AcDbEntity
  8
Gravur
  6
ByLayer
 62
  256
370
   -1
100
AcDbSpline
210
0
220
0
230
0
 70
    8
 71
    3
 72
    8
 73
    4
 74
    0
 42
1e-07
 43
1e-07
 40
0
 40
0
 40
0
 40
0
 40
1
 40
1
 40
1
 40
1
 10
254.895816624
 20
162.314109648
 30
0
 10
255.36384144
 20
162.351634592
 30
0
 10
255.83213152
 20
162.39808128
 30
0
 10
256.311155824
 20
162.397364784
 30
0
  0
LINE
  5
139
100
AcDbEntity
  8
Gravur
  6
ByLayer
 62
  256
370
   -1
100
AcDbLine
 10
256.311155824
 20
162.397364784
 11
256.311155824
 21
162.397364784
  0
SPLINE
  5
13A
100
AcDbEntity
  8
Gravur
  6
ByLayer
 62
  256
370
   -1
100
AcDbSpline
210
0
220
0
230
0
 70
    8
 71
    3
 72
    8
 73
    4
 74
    0
 42
1e-07
 43
1e-07
 40
0
 40
0
 40
0
 40
0
 40
1
 40
1
 40
1
 40
1
 10
252.381491504
 20
155.570409648
 30
0
 10
255.476384176
 20
155.56188344
 30
0
 10
257.368112976
 20
152.088805488
 30
0
 10
261.248207856
 20
146.836901136
 30
0
  0
SPLINE
  5
13B
100
AcDbEntity
  8
Gravur
  6
ByLayer
 62
  256
370
   -1
100
AcDbSpline
210
0
220
0
230
0
 70
    8
 71
    3
 72
    8
 73
    4
 74
    0
 42
1e-07
 43
1e-07
 40
0
 40
0
 40
0
 40
0
 40
1
 40
1
 40
1
 40
1
 10
261.248207856
 20
146.836901136
 30
0
 10
265.128302736
 20
152.088805488
 30
0
 10
267.020031536
 20
155.561889104
 30
0
 10
270.11492704
 20
155.570409648
 30
0
  0
SPLINE
  5
13C
100
AcDbEntity
  8
Gravur
  6
ByLayer
 62
  256
370
   -1
100
AcDbSpline
210
0
220
0
230
0
 70
    8
 71
    3
 72
    8
 73
    4
 74
    0
 42
1e-07
 43
1e-07
 40
0
 40
0
 40
0
 40
0
 40
1
 40
1
 40
1
 40
1
 10
270.11492704
 20
155.570409648
 30
0
 10
273.209819712
 20
155.578934912
 30
0
 10
274.842675392
 20
148.080936432
 30
0
 10
272.229618256
 20
144.322583568
 30
0
  0
SPLINE
  5
13D
100
AcDbEntity
  8
Gravur
  6
ByLayer
 62
  256
370
   -1
100
AcDbSpline
210
0
220
0
230
0
 70
    8
 71
    3
 72
    8
 73
    4
 74
    0
 42
1e-07
 43
1e-07
 40
0
 40
0
 40
0
 40
0
 40
1
 40
1
 40
1
 40
1
 10
272.229618256
 20
144.322583568
 30
0
 10
271.41281376
 20
146.23833528
 30
0
 10
270.595518384
 20
148.314718032
 30
0
 10
268.13344272
 20
146.179182352
 30
0
  0
SPLINE
  5
13E
100
AcDbEntity
  8
Gravur
  6
ByLayer
 62
  256
370
   -1
100
AcDbSpline
210
0
220
0
230
0
 70
    8
 71
    3
 72
    8
 73
    4
 74
    0
 42
1e-07
 43
1e-07
 40
0
 40
0
 40
0
 40
0
 40
1
 40
1
 40
1
 40
1
 10
268.13344272
 20
146.179182352
 30
0
 10
265.671368944
 20
144.043646672
 30
0
 10
265.85038816
 20
141.31846216
 30
0
 10
266.010422592
 20
138.369824352
 30
0
  0
LINE
  5
13F
100
AcDbEntity
  8
Gravur
  6
ByLayer
 62
  256
370
   -1
100
AcDbLine
 10
266.010422592
 20
138.369824352
 11
261.248207856
 21
137.179273264
  0
LINE
  5
140
100
AcDbEntity
  8
Gravur
  6
ByLayer
 62
  256
370
   -1
100
AcDbLine
 10
261.248207856
 20
137.179273264
 11
256.48599312
 21
138.369824352
  0
SPLINE
  5
141
100
AcDbEntity
  8
Gravur
  6
ByLayer
 62
  256
370
   -1
100
AcDbSpline
210
0
220
0
230
0
 70
    8
 71
    3
 72
    8
 73
    4
 74
    0
 42
1e-07
 43
1e-07
 40
0
 40
0
 40
0
 40
0
 40
1
 40
1
 40
1
 40
1
 10
256.48599312
 20
138.369824352
 30
0
 10
256.64602944
 20
141.31846216
 30
0
 10
256.833374736
 20
144.043646672
 30
0
 10
254.371301904
 20
146.179182352
 30
0
  0
SPLINE
  5
142
100
AcDbEntity
  8
Gravur
  6
ByLayer
 62
  256
370
   -1
100
AcDbSpline
210
0
220
0
230
0
 70
    8
 71
    3
 72
    8
 73
    4
 74
    0
 42
1e-07
 43
1e-07
 40
0
 40
0
 40
0
 40
0
 40
1
 40
1
 40
1
 40
1
 10
254.371301904
 20
146.179182352
 30
0
 10
251.909225296
 20
148.314718032
 30
0
 10
251.083604784
 20
146.23833528
 30
0
 10
250.266797456
 20
144.322583568
 30
0
  0
SPLINE
  5
143
100
AcDbEntity
  8
Gravur
  6
ByLayer
 62
  256
370
   -1
100
AcDbSpline
210
0
220
0
230
0
 70
    8
 71
    3
 72
    8
 73
    4
 74
    0
 42
1e-07
 43
1e-07
 40
0
 40
0
 40
0
 40
0
 40
1
 40
1
 40
1
 40
1
 10
250.266797456
 20
144.322583568
 30
0
 10
247.653750704
 20
148.080936432
 30
0
 10
249.286596
 20
155.578934912
 30
0
 10
252.381491504
 20
155.570409648
 30
0
  0
LINE
  5
144
100
AcDbEntity
  8
Gravur
  6
ByLayer
 62
  256
370
   -1
100
AcDbLine
 10
252.381491504
 20
155.570409648
 11
252.381491504
 21
155.570409648
  0
SPLINE
  5
145
100
AcDbEntity
  8
Gravur
  6
ByLayer
 62
  256
370
   -1
100
AcDbSpline
210
0
220
0
230
0
 70
    8
 71
    3
 72
    8
 73
    4
 74
    0
 42
1e-07
 43
1e-07
 40
0
 40
0
 40
0
 40
0
 40
1
 40
1
 40
1
 40
1
 10
269.188909296
 20
218.5477252
 30
0
 10
264.316011504
 20
219.142397056
 30
0
 10
263.622075216
 20
216.827732656
 30
0
 10
261.2495776
 20
216.827732656
 30
0
  0
SPLINE
  5
146
100
AcDbEntity
  8
Gravur
  6
ByLayer
 62
  256
370
   -1
100
AcDbSpline
210
0
220
0
230
0
 70
    8
 71
    3
 72
    8
 73
    4
 74
    0
 42
1e-07
 43
1e-07
 40
0
 40
0
 40
0
 40
0
 40
1
 40
1
 40
1
 40
1
 10
261.2495776
 20
216.827732656
 30
0
 10
258.87707904
 20
216.827732656
 30
0
 10
258.183145584
 20
219.142397056
 30
0
 10
253.310236464
 20
218.5477252
 30
0
  0
SPLINE
  5
147
100
AcDbEntity
  8
Gravur
  6
ByLayer
 62
  256
370
   -1
100
AcDbSpline
210
0
220
0
230
0
 70
    8
 71
    3
 72
    8
 73
    4
 74
    0
 42
1e-07
 43
1e-07
 40
0
 40
0
 40
0
 40
0
 40
1
 40
1
 40
1
 40
1
 10
253.310236464
 20
218.5477252
 30
0
 10
256.555980336
 20
215.389692144
 30
0
 10
259.008473456
 20
209.153906624
 30
0
 10
261.2495776
 20
209.153906624
 30
0
  0
SPLINE
  5
148
100
AcDbEntity
  8
Gravur
  6
ByLayer
 62
  256
370
   -1
100
AcDbSpline
210
0
220
0
230
0
 70
    8
 71
    3
 72
    8
 73
    4
 74
    0
 42
1e-07
 43
1e-07
 40
0
 40
0
 40
0
 40
0
 40
1
 40
1
 40
1
 40
1
 10
261.2495776
 20
209.153906624
 30
0
 10
263.4906808
 20
209.153906624
 30
0
 10
265.94317392
 20
215.389692144
 30
0
 10
269.188909296
 20
218.5477252
 30
0
  0
LINE
  5
149
100
AcDbEntity
  8
Gravur
  6
ByLayer
 62
  256
370
   -1
100
AcDbLine
 10
269.188909296
 20
218.5477252
 11
269.188909296
 21
218.5477252
  0
SPLINE
  5
14A
100
AcDbEntity
  8
Gravur
  6
ByLayer
 62
  256
370
   -1
100
AcDbSpline
210
0
220
0
230
0
 70
    8
 71
    3
 72
    8
 73
    4
 74
    0
 42
1e-07
 43
1e-07
 40
0
 40
0
 40
0
 40
0
 40
1
 40
1
 40
1
 40
1
 10
242.99026704
 20
211.270824736
 30
0
 10
236.78748848
 20
211.270824736
 30
0
 10
233
 20
201.347777104
 30
0
 10
233
 20
201.347777104
 30
0
  0
LINE
  5
14B
100
AcDbEntity
  8
Gravur
  6
ByLayer
 62
  256
370
   -1
100
AcDbLine
 10
233
 20
201.347777104
 11
233
 21
229
  0
SPLINE
  5
14C
100
AcDbEntity
  8
Gravur
  6
ByLayer
 62
  256
370
   -1
100
AcDbSpline
210
0
220
0
230
0
 70
    8
 71
    3
 72
    8
 73
    4
 74
    0
 42
1e-07
 43
1e-07
 40
0
 40
0
 40
0
 40
0
 40
1
 40
1
 40
1
 40
1
 10
233
 20
229
 30
0
 10
241.327364784
 20
229
 30
0
 10
256.95998496
 20
205.052380496
 30
0
 10
261.2495776
 20
205.052380496
 30
0
  0
SPLINE
  5
14D
100
AcDbEntity
  8
Gravur
  6
ByLayer
 62
  256
370
   -1
100
AcDbSpline
210
0
220
0
230
0
 70
    8
 71
    3
 72
    8
 73
    4
 74
    0
 42
1e-07
 43
1e-07
 40
0
 40
0
 40
0
 40
0
 40
1
 40
1
 40
1
 40
1
 10
261.2495776
 20
205.052380496
 30
0
 10
265.53917024
 20
205.052380496
 30
0
 10
281.503444992
 20
229
 30
0
 10
289.830799392
 20
229
 30
0
  0
LINE
  5
14E
100
AcDbEntity
  8
Gravur
  6
ByLayer
 62
  256
370
   -1
100
AcDbLine
 10
289.830799392
 20
229
 11
289.830799392
 21
201.347777104
  0
SPLINE
  5
14F
100
AcDbEntity
  8
Gravur
  6
ByLayer
 62
  256
370
   -1
100
AcDbSpline
210
0
220
0
230
0
 70
    8
 71
    3
 72
    8
 73
    4
 74
    0
 42
1e-07
 43
1e-07
 40
0
 40
0
 40
0
 40
0
 40
1
 40
1
 40
1
 40
1
 10
289.830799392
 20
201.347777104
 30
0
 10
289.830799392
 20
201.347777104
 30
0
 10
285.711665776
 20
211.270824736
 30
0
 10
279.508887216
 20
211.270824736
 30
0
  0
SPLINE
  5
150
100
AcDbEntity
  8
Gravur
  6
ByLayer
 62
  256
370
   -1
100
AcDbSpline
210
0
220
0
230
0
 70
    8
 71
    3
 72
    8
 73
    4
 74
    0
 42
1e-07
 43
1e-07
 40
0
 40
0
 40
0
 40
0
 40
1
 40
1
 40
1
 40
1
 10
279.508887216
 20
211.270824736
 30
0
 10
273.30610016
 20
211.270824736
 30
0
 10
268.232544784
 20
201.347777104
 30
0
 10
261.2495776
 20
201.347777104
 30
0
  0
SPLINE
  5
151
100
AcDbEntity
  8
Gravur
  6
ByLayer
 62
  256
370
   -1
100
AcDbSpline
210
0
220
0
230
0
 70
    8
 71
    3
 72
    8
 73
    4
 74
    0
 42
1e-07
 43
1e-07
 40
0
 40
0
 40
0
 40
0
 40
1
 40
1
 40
1
 40
1
 10
261.2495776
 20
201.347777104
 30
0
 10
254.266612304
 20
201.347777104
 30
0
 10
249.193056928
 20
211.270824736
 30
0
 10
242.99026704
 20
211.270824736
 30
0
  0
LINE
  5
152
100
AcDbEntity
  8
Gravur
  6
ByLayer
 62
  256
370
   -1
100
AcDbLine
 10
242.99026704
 20
211.270824736
 11
242.99026704
 21
211.270824736
  0
SPLINE
  5
153
100
AcDbEntity
  8
Gravur
  6
ByLayer
 62
  256
370
   -1
100
AcDbSpline
210
0
220
0
230
0
 70
    8
 71
    3
 72
    8
 73
    4
 74
    0
 42
1e-07
 43
1e-07
 40
0
 40
0
 40
0
 40
0
 40
1
 40
1
 40
1
 40
1
 10
241.55237472
 20
117.271643392
 30
0
 10
241.0475424
 20
117.284990608
 30
0
 10
240.561702416
 20
117.144665952
 30
0
 10
240.17796736
 20
116.854216976
 30
0
  0
SPLINE
  5
154
100
AcDbEntity
  8
Gravur
  6
ByLayer
 62
  256
370
   -1
100
AcDbSpline
210
0
220
0
230
0
 70
    8
 71
    3
 72
    8
 73
    4
 74
    0
 42
1e-07
 43
1e-07
 40
0
 40
0
 40
0
 40
0
 40
1
 40
1
 40
1
 40
1
 10
240.17796736
 20
116.854216976
 30
0
 10
239.495775376
 20
116.33787824
 30
0
 10
239.110927344
 20
115.539914096
 30
0
 10
238.82893472
 20
114.60101264
 30
0
  0
SPLINE
  5
155
100
AcDbEntity
  8
Gravur
  6
ByLayer
 62
  256
370
   -1
100
AcDbSpline
210
0
220
0
230
0
 70
    8
 71
    3
 72
    8
 73
    4
 74
    0
 42
1e-07
 43
1e-07
 40
0
 40
0
 40
0
 40
0
 40
1
 40
1
 40
1
 40
1
 10
238.82893472
 20
114.60101264
 30
0
 10
238.264930592
 20
112.723206896
 30
0
 10
238.155899536
 20
110.149853456
 30
0
 10
238.36106
 20
107.524258112
 30
0
  0
SPLINE
  5
156
100
AcDbEntity
  8
Gravur
  6
ByLayer
 62
  256
370
   -1
100
AcDbSpline
210
0
220
0
230
0
 70
    8
 71
    3
 72
    8
 73
    4
 74
    0
 42
1e-07
 43
1e-07
 40
0
 40
0
 40
0
 40
0
 40
1
 40
1
 40
1
 40
1
 10
238.36106
 20
107.524258112
 30
0
 10
238.566220464
 20
104.898655216
 30
0
 10
239.091971824
 20
102.247412336
 30
0
 10
239.933998112
 20
100.262248304
 30
0
  0
SPLINE
  5
157
100
AcDbEntity
  8
Gravur
  6
ByLayer
 62
  256
370
   -1
100
AcDbSpline
210
0
220
0
230
0
 70
    8
 71
    3
 72
    8
 73
    4
 74
    0
 42
1e-07
 43
1e-07
 40
0
 40
0
 40
0
 40
0
 40
1
 40
1
 40
1
 40
1
 10
239.933998112
 20
100.262248304
 30
0
 10
240.355012672
 20
99.269657792
 30
0
 10
240.847715536
 20
98.43420929599999
 30
0
 10
241.50841264
 20
97.84648339200001
 30
0
  0
SPLINE
  5
158
100
AcDbEntity
  8
Gravur
  6
ByLayer
 62
  256
370
   -1
100
AcDbSpline
210
0
220
0
230
0
 70
    8
 71
    3
 72
    8
 73
    4
 74
    0
 42
1e-07
 43
1e-07
 40
0
 40
0
 40
0
 40
0
 40
1
 40
1
 40
1
 40
1
 10
241.50841264
 20
97.84648339200001
 30
0
 10
242.16911824
 20
97.258768816
 30
0
 10
243.11133408
 20
96.95959728
 30
0
 10
244.003233776
 20
97.24911075199999
 30
0
  0
SPLINE
  5
159
100
AcDbEntity
  8
Gravur
  6
ByLayer
 62
  256
370
   -1
100
AcDbSpline
210
0
220
0
230
0
 70
    8
 71
    3
 72
    8
 73
    4
 74
    0
 42
1e-07
 43
1e-07
 40
0
 40
0
 40
0
 40
0
 40
1
 40
1
 40
1
 40
1
 10
244.003233776
 20
97.24911075199999
 30
0
 10
252.33398752
 20
99.95330448
 30
0
 10
254.89437984
 20
100.952246224
 30
0
 10
262
 20
100.952246224
 30
0
  0
SPLINE
  5
15A
100
AcDbEntity
  8
Gravur
  6
ByLayer
 62
  256
370
   -1
100
AcDbSpline
210
0
220
0
230
0
 70
    8
 71
    3
 72
    8
 73
    4
 74
    0
 42
1e-07
 43
1e-07
 40
0
 40
0
 40
0
 40
0
 40
1
 40
1
 40
1
 40
1
 10
262
 20
100.952246224
 30
0
 10
269.105628656
 20
100.952246224
 30
0
 10
271.665727392
 20
99.95330448
 30
0
 10
279.996481136
 20
97.24911075199999
 30
0
  0
SPLINE
  5
15B
100
AcDbEntity
  8
Gravur
  6
ByLayer
 62
  256
370
   -1
100
AcDbSpline
210
0
220
0
230
0
 70
    8
 71
    3
 72
    8
 73
    4
 74
    0
 42
1e-07
 43
1e-07
 40
0
 40
0
 40
0
 40
0
 40
1
 40
1
 40
1
 40
1
 10
279.996481136
 20
97.24911075199999
 30
0
 10
280.888380832
 20
96.95959728
 30
0
 10
281.830586288
 20
97.2587556
 30
0
 10
282.49129472
 20
97.84648339200001
 30
0
  0
SPLINE
  5
15C
100
AcDbEntity
  8
Gravur
  6
ByLayer
 62
  256
370
   -1
100
AcDbSpline
210
0
220
0
230
0
 70
    8
 71
    3
 72
    8
 73
    4
 74
    0
 42
1e-07
 43
1e-07
 40
0
 40
0
 40
0
 40
0
 40
1
 40
1
 40
1
 40
1
 10
282.49129472
 20
97.84648339200001
 30
0
 10
283.151988992
 20
98.43420929599999
 30
0
 10
283.644691856
 20
99.269657792
 30
0
 10
284.065706416
 20
100.262248304
 30
0
  0
SPLINE
  5
15D
100
AcDbEntity
  8
Gravur
  6
ByLayer
 62
  256
370
   -1
100
AcDbSpline
210
0
220
0
230
0
 70
    8
 71
    3
 72
    8
 73
    4
 74
    0
 42
1e-07
 43
1e-07
 40
0
 40
0
 40
0
 40
0
 40
1
 40
1
 40
1
 40
1
 10
284.065706416
 20
100.262248304
 30
0
 10
284.907735536
 20
102.247412336
 30
0
 10
285.433486896
 20
104.898655216
 30
0
 10
285.638644528
 20
107.524258112
 30
0
  0
SPLINE
  5
15E
100
AcDbEntity
  8
Gravur
  6
ByLayer
 62
  256
370
   -1
100
AcDbSpline
210
0
220
0
230
0
 70
    8
 71
    3
 72
    8
 73
    4
 74
    0
 42
1e-07
 43
1e-07
 40
0
 40
0
 40
0
 40
0
 40
1
 40
1
 40
1
 40
1
 10
285.638644528
 20
107.524258112
 30
0
 10
285.843804992
 20
110.149853456
 30
0
 10
285.734773936
 20
112.723206896
 30
0
 10
285.170769808
 20
114.60101264
 30
0
  0
SPLINE
  5
15F
100
AcDbEntity
  8
Gravur
  6
ByLayer
 62
  256
370
   -1
100
AcDbSpline
210
0
220
0
230
0
 70
    8
 71
    3
 72
    8
 73
    4
 74
    0
 42
1e-07
 43
1e-07
 40
0
 40
0
 40
0
 40
0
 40
1
 40
1
 40
1
 40
1
 10
285.170769808
 20
114.60101264
 30
0
 10
284.888780016
 20
115.539914096
 30
0
 10
284.503939536
 20
116.33787824
 30
0
 10
283.821739056
 20
116.854216976
 30
0
  0
SPLINE
  5
160
100
AcDbEntity
  8
Gravur
  6
ByLayer
 62
  256
370
   -1
100
AcDbSpline
210
0
220
0
230
0
 70
    8
 71
    3
 72
    8
 73
    4
 74
    0
 42
1e-07
 43
1e-07
 40
0
 40
0
 40
0
 40
0
 40
1
 40
1
 40
1
 40
1
 10
283.821739056
 20
116.854216976
 30
0
 10
283.139547072
 20
117.37056704
 30
0
 10
282.134733648
 20
117.41257504
 30
0
 10
281.274409808
 20
116.95983264
 30
0
  0
SPLINE
  5
161
100
AcDbEntity
  8
Gravur
  6
ByLayer
 62
  256
370
   -1
100
AcDbSpline
210
0
220
0
230
0
 70
    8
 71
    3
 72
    8
 73
    4
 74
    0
 42
1e-07
 43
1e-07
 40
0
 40
0
 40
0
 40
0
 40
1
 40
1
 40
1
 40
1
 10
281.274409808
 20
116.95983264
 30
0
 10
275.968772032
 20
114.167745904
 30
0
 10
270.625344992
 20
112
 30
0
 10
262
 20
112
 30
0
  0
SPLINE
  5
162
100
AcDbEntity
  8
Gravur
  6
ByLayer
 62
  256
370
   -1
100
AcDbSpline
210
0
220
0
230
0
 70
    8
 71
    3
 72
    8
 73
    4
 74
    0
 42
1e-07
 43
1e-07
 40
0
 40
0
 40
0
 40
0
 40
1
 40
1
 40
1
 40
1
 10
262
 20
112
 30
0
 10
253.374652176
 20
112
 30
0
 10
248.030932496
 20
114.167745904
 30
0
 10
242.72529472
 20
116.95983264
 30
0
  0
SPLINE
  5
163
100
AcDbEntity
  8
Gravur
  6
ByLayer
 62
  256
370
   -1
100
AcDbSpline
210
0
220
0
230
0
 70
    8
 71
    3
 72
    8
 73
    4
 74
    0
 42
1e-07
 43
1e-07
 40
0
 40
0
 40
0
 40
0
 40
1
 40
1
 40
1
 40
1
 10
242.72529472
 20
116.95983264
 30
0
 10
242.348902096
 20
117.15791216
 30
0
 10
241.945021136
 20
117.261279216
 30
0
 10
241.55237472
 20
117.271643392
 30
0
  0
LINE
  5
164
100
AcDbEntity
  8
Gravur
  6
ByLayer
 62
  256
370
   -1
100
AcDbLine
 10
241.55237472
 20
117.271643392
 11
241.55237472
 21
117.271643392
  0
SPLINE
  5
165
100
AcDbEntity
  8
Gravur
  6
ByLayer
 62
  256
370
   -1
100
AcDbSpline
210
0
220
0
230
0
 70
    8
 71
    3
 72
    8
 73
    4
 74
    0
 42
1e-07
 43
1e-07
 40
0
 40
0
 40
0
 40
0
 40
1
 40
1
 40
1
 40
1
 10
241.46593264
 20
115.724664336
 30
0
 10
241.585545936
 20
115.726262528
 30
0
 10
241.7370872
 20
115.673669456
 30
0
 10
241.981005472
 20
115.545304336
 30
0
  0
SPLINE
  5
166
100
AcDbEntity
  8
Gravur
  6
ByLayer
 62
  256
370
   -1
100
AcDbSpline
210
0
220
0
230
0
 70
    8
 71
    3
 72
    8
 73
    4
 74
    0
 42
1e-07
 43
1e-07
 40
0
 40
0
 40
0
 40
0
 40
1
 40
1
 40
1
 40
1
 10
241.981005472
 20
115.545304336
 30
0
 10
242.266443696
 20
115.395095056
 30
0
 10
242.553550912
 20
115.247387376
 30
0
 10
242.841226416
 20
115.10044528
 30
0
  0
SPLINE
  5
167
100
AcDbEntity
  8
Gravur
  6
ByLayer
 62
  256
370
   -1
100
AcDbSpline
210
0
220
0
230
0
 70
    8
 71
    3
 72
    8
 73
    4
 74
    0
 42
1e-07
 43
1e-07
 40
0
 40
0
 40
0
 40
0
 40
1
 40
1
 40
1
 40
1
 10
242.841226416
 20
115.10044528
 30
0
 10
242.376777472
 20
111.55926528
 30
0
 10
242.588781936
 20
108.2590224
 30
0
 10
243.068078112
 20
105.138591696
 30
0
  0
SPLINE
  5
168
100
AcDbEntity
  8
Gravur
  6
ByLayer
 62
  256
370
   -1
100
AcDbSpline
210
0
220
0
230
0
 70
    8
 71
    3
 72
    8
 73
    4
 74
    0
 42
1e-07
 43
1e-07
 40
0
 40
0
 40
0
 40
0
 40
1
 40
1
 40
1
 40
1
 10
243.068078112
 20
105.138591696
 30
0
 10
242.170116992
 20
104.97774448
 30
0
 10
241.269617456
 20
104.782582864
 30
0
 10
240.366173584
 20
104.54534528
 30
0
  0
SPLINE
  5
169
100
AcDbEntity
  8
Gravur
  6
ByLayer
 62
  256
370
   -1
100
AcDbSpline
210
0
220
0
230
0
 70
    8
 71
    3
 72
    8
 73
    4
 74
    0
 42
1e-07
 43
1e-07
 40
0
 40
0
 40
0
 40
0
 40
1
 40
1
 40
1
 40
1
 10
240.366173584
 20
104.54534528
 30
0
 10
240.17713664
 20
105.546124992
 30
0
 10
240.036489136
 20
106.60142448
 30
0
 10
239.954653776
 20
107.64874528
 30
0
  0
SPLINE
  5
16A
100
AcDbEntity
  8
Gravur
  6
ByLayer
 62
  256
370
   -1
100
AcDbSpline
210
0
220
0
230
0
 70
    8
 71
    3
 72
    8
 73
    4
 74
    0
 42
1e-07
 43
1e-07
 40
0
 40
0
 40
0
 40
0
 40
1
 40
1
 40
1
 40
1
 10
239.954653776
 20
107.64874528
 30
0
 10
239.759870704
 20
110.141565136
 30
0
 10
239.900347344
 20
112.610768
 30
0
 10
240.359979056
 20
114.141103392
 30
0
  0
SPLINE
  5
16B
100
AcDbEntity
  8
Gravur
  6
ByLayer
 62
  256
370
   -1
100
AcDbSpline
210
0
220
0
230
0
 70
    8
 71
    3
 72
    8
 73
    4
 74
    0
 42
1e-07
 43
1e-07
 40
0
 40
0
 40
0
 40
0
 40
1
 40
1
 40
1
 40
1
 10
240.359979056
 20
114.141103392
 30
0
 10
240.589795856
 20
114.906282416
 30
0
 10
240.91039808
 20
115.40376192
 30
0
 10
241.142613584
 20
115.57952528
 30
0
  0
SPLINE
  5
16C
100
AcDbEntity
  8
Gravur
  6
ByLayer
 62
  256
370
   -1
100
AcDbSpline
210
0
220
0
230
0
 70
    8
 71
    3
 72
    8
 73
    4
 74
    0
 42
1e-07
 43
1e-07
 40
0
 40
0
 40
0
 40
0
 40
1
 40
1
 40
1
 40
1
 10
241.142613584
 20
115.57952528
 30
0
 10
241.258723696
 20
115.667410736
 30
0
 10
241.346326896
 20
115.723124672
 30
0
 10
241.46593264
 20
115.724664336
 30
0
  0
LINE
  5
16D
100
AcDbEntity
  8
Gravur
  6
ByLayer
 62
  256
370
   -1
100
AcDbLine
 10
241.46593264
 20
115.724664336
 11
241.46593264
 21
115.724664336
  0
SPLINE
  5
16E
100
AcDbEntity
  8
Gravur
  6
ByLayer
 62
  256
370
   -1
100
AcDbSpline
210
0
220
0
230
0
 70
    8
 71
    3
 72
    8
 73
    4
 74
    0
 42
1e-07
 43
1e-07
 40
0
 40
0
 40
0
 40
0
 40
1
 40
1
 40
1
 40
1
 10
282.533771888
 20
115.724664336
 30
0
 10
282.653377632
 20
115.723066144
 30
0
 10
282.740980832
 20
115.667410736
 30
0
 10
282.857093776
 20
115.57952528
 30
0
  0
SPLINE
  5
16F
100
AcDbEntity
  8
Gravur
  6
ByLayer
 62
  256
370
   -1
100
AcDbSpline
210
0
220
0
230
0
 70
    8
 71
    3
 72
    8
 73
    4
 74
    0
 42
1e-07
 43
1e-07
 40
0
 40
0
 40
0
 40
0
 40
1
 40
1
 40
1
 40
1
 10
282.857093776
 20
115.57952528
 30
0
 10
283.08930928
 20
115.40376192
 30
0
 10
283.409907728
 20
114.906282416
 30
0
 10
283.639725472
 20
114.141103392
 30
0
  0
SPLINE
  5
170
100
AcDbEntity
  8
Gravur
  6
ByLayer
 62
  256
370
   -1
100
AcDbSpline
210
0
220
0
230
0
 70
    8
 71
    3
 72
    8
 73
    4
 74
    0
 42
1e-07
 43
1e-07
 40
0
 40
0
 40
0
 40
0
 40
1
 40
1
 40
1
 40
1
 10
283.639725472
 20
114.141103392
 30
0
 10
284.099360016
 20
112.610768
 30
0
 10
284.239845152
 20
110.141565136
 30
0
 10
284.045050752
 20
107.64874528
 30
0
  0
SPLINE
  5
171
100
AcDbEntity
  8
Gravur
  6
ByLayer
 62
  256
370
   -1
100
AcDbSpline
210
0
220
0
230
0
 70
    8
 71
    3
 72
    8
 73
    4
 74
    0
 42
1e-07
 43
1e-07
 40
0
 40
0
 40
0
 40
0
 40
1
 40
1
 40
1
 40
1
 10
284.045050752
 20
107.64874528
 30
0
 10
283.9632153920001
 20
106.60142448
 30
0
 10
283.822567888
 20
105.546124992
 30
0
 10
283.633533776
 20
104.54534528
 30
0
  0
SPLINE
  5
172
100
AcDbEntity
  8
Gravur
  6
ByLayer
 62
  256
370
   -1
100
AcDbSpline
210
0
220
0
230
0
 70
    8
 71
    3
 72
    8
 73
    4
 74
    0
 42
1e-07
 43
1e-07
 40
0
 40
0
 40
0
 40
0
 40
1
 40
1
 40
1
 40
1
 10
283.633533776
 20
104.54534528
 30
0
 10
282.730087072
 20
104.782582864
 30
0
 10
281.829587536
 20
104.97774448
 30
0
 10
280.931626416
 20
105.138591696
 30
0
  0
SPLINE
  5
173
100
AcDbEntity
  8
Gravur
  6
ByLayer
 62
  256
370
   -1
100
AcDbSpline
210
0
220
0
230
0
 70
    8
 71
    3
 72
    8
 73
    4
 74
    0
 42
1e-07
 43
1e-07
 40
0
 40
0
 40
0
 40
0
 40
1
 40
1
 40
1
 40
1
 10
280.931626416
 20
105.138591696
 30
0
 10
281.410922592
 20
108.2590224
 30
0
 10
281.622927056
 20
111.55926528
 30
0
 10
281.158478112
 20
115.10044528
 30
0
  0
SPLINE
  5
174
100
AcDbEntity
  8
Gravur
  6
ByLayer
 62
  256
370
   -1
100
AcDbSpline
210
0
220
0
230
0
 70
    8
 71
    3
 72
    8
 73
    4
 74
    0
 42
1e-07
 43
1e-07
 40
0
 40
0
 40
0
 40
0
 40
1
 40
1
 40
1
 40
1
 10
281.158478112
 20
115.10044528
 30
0
 10
281.446153616
 20
115.247387376
 30
0
 10
281.733260832
 20
115.395095056
 30
0
 10
282.018698112
 20
115.545304336
 30
0
  0
SPLINE
  5
175
100
AcDbEntity
  8
Gravur
  6
ByLayer
 62
  256
370
   -1
100
AcDbSpline
210
0
220
0
230
0
 70
    8
 71
    3
 72
    8
 73
    4
 74
    0
 42
1e-07
 43
1e-07
 40
0
 40
0
 40
0
 40
0
 40
1
 40
1
 40
1
 40
1
 10
282.018698112
 20
115.545304336
 30
0
 10
282.262617328
 20
115.673669456
 30
0
 10
282.414158592
 20
115.726204
 30
0
 10
282.533771888
 20
115.724664336
 30
0
  0
LINE
  5
176
100
AcDbEntity
  8
Gravur
  6
ByLayer
 62
  256
370
   -1
100
AcDbLine
 10
282.533771888
 20
115.724664336
 11
282.533771888
 21
115.724664336
  0
SPLINE
  5
177
100
AcDbEntity
  8
Gravur
  6
ByLayer
 62
  256
370
   -1
100
AcDbSpline
210
0
220
0
230
0
 70
    8
 71
    3
 72
    8
 73
    4
 74
    0
 42
1e-07
 43
1e-07
 40
0
 40
0
 40
0
 40
0
 40
1
 40
1
 40
1
 40
1
 10
244.360180944
 20
114.348784336
 30
0
 10
246.476022896
 20
113.339865456
 30
0
 10
248.699142896
 20
112.44612496
 30
0
 10
251.186770752
 20
111.76547264
 30
0
  0
SPLINE
  5
178
100
AcDbEntity
  8
Gravur
  6
ByLayer
 62
  256
370
   -1
100
AcDbSpline
210
0
220
0
230
0
 70
    8
 71
    3
 72
    8
 73
    4
 74
    0
 42
1e-07
 43
1e-07
 40
0
 40
0
 40
0
 40
0
 40
1
 40
1
 40
1
 40
1
 10
251.186770752
 20
111.76547264
 30
0
 10
251.186238336
 20
109.77597376
 30
0
 10
251.29226464
 20
107.810415664
 30
0
 10
251.418938112
 20
105.85456
 30
0
  0
SPLINE
  5
179
100
AcDbEntity
  8
Gravur
  6
ByLayer
 62
  256
370
   -1
100
AcDbSpline
210
0
220
0
230
0
 70
    8
 71
    3
 72
    8
 73
    4
 74
    0
 42
1e-07
 43
1e-07
 40
0
 40
0
 40
0
 40
0
 40
1
 40
1
 40
1
 40
1
 10
251.418938112
 20
105.85456
 30
0
 10
249.1756184
 20
105.81615808
 30
0
 10
246.920042736
 20
105.700468992
 30
0
 10
244.64840208
 20
105.38904528
 30
0
  0
SPLINE
  5
17A
100
AcDbEntity
  8
Gravur
  6
ByLayer
 62
  256
370
   -1
100
AcDbSpline
210
0
220
0
230
0
 70
    8
 71
    3
 72
    8
 73
    4
 74
    0
 42
1e-07
 43
1e-07
 40
0
 40
0
 40
0
 40
0
 40
1
 40
1
 40
1
 40
1
 10
244.64840208
 20
105.38904528
 30
0
 10
244.210555056
 20
108.24258736
 30
0
 10
244.00958784
 20
111.204575216
 30
0
 10
244.360180944
 20
114.348784336
 30
0
  0
LINE
  5
17B
100
AcDbEntity
  8
Gravur
  6
ByLayer
 62
  256
370
   -1
100
AcDbLine
 10
244.360180944
 20
114.348784336
 11
244.360180944
 21
114.348784336
  0
SPLINE
  5
17C
100
AcDbEntity
  8
Gravur
  6
ByLayer
 62
  256
370
   -1
100
AcDbSpline
210
0
220
0
230
0
 70
    8
 71
    3
 72
    8
 73
    4
 74
    0
 42
1e-07
 43
1e-07
 40
0
 40
0
 40
0
 40
0
 40
1
 40
1
 40
1
 40
1
 10
279.639526416
 20
114.348784336
 30
0
 10
279.990118576
 20
111.204575216
 30
0
 10
279.789159856
 20
108.24258736
 30
0
 10
279.351312832
 20
105.38904528
 30
0
  0
SPLINE
  5
17D
100
AcDbEntity
  8
Gravur
  6
ByLayer
 62
  256
370
   -1
100
AcDbSpline
210
0
220
0
230
0
 70
    8
 71
    3
 72
    8
 73
    4
 74
    0
 42
1e-07
 43
1e-07
 40
0
 40
0
 40
0
 40
0
 40
1
 40
1
 40
1
 40
1
 10
279.351312832
 20
105.38904528
 30
0
 10
277.079661792
 20
105.700468992
 30
0
 10
274.824086128
 20
105.81615808
 30
0
 10
272.580766416
 20
105.85456
 30
0
  0
SPLINE
  5
17E
100
AcDbEntity
  8
Gravur
  6
ByLayer
 62
  256
370
   -1
100
AcDbSpline
210
0
220
0
230
0
 70
    8
 71
    3
 72
    8
 73
    4
 74
    0
 42
1e-07
 43
1e-07
 40
0
 40
0
 40
0
 40
0
 40
1
 40
1
 40
1
 40
1
 10
272.580766416
 20
105.85456
 30
0
 10
272.707450272
 20
107.810415664
 30
0
 10
272.81348224
 20
109.77597376
 30
0
 10
272.812932832
 20
111.76547264
 30
0
  0
SPLINE
  5
17F
100
AcDbEntity
  8
Gravur
  6
ByLayer
 62
  256
370
   -1
100
AcDbSpline
210
0
220
0
230
0
 70
    8
 71
    3
 72
    8
 73
    4
 74
    0
 42
1e-07
 43
1e-07
 40
0
 40
0
 40
0
 40
0
 40
1
 40
1
 40
1
 40
1
 10
272.812932832
 20
111.76547264
 30
0
 10
275.300561632
 20
112.44612496
 30
0
 10
277.523692016
 20
113.339865456
 30
0
 10
279.639526416
 20
114.348784336
 30
0
  0
LINE
  5
180
100
AcDbEntity
  8
Gravur
  6
ByLayer
 62
  256
370
   -1
100
AcDbLine
 10
279.639526416
 20
114.348784336
 11
279.639526416
 21
114.348784336
  0
SPLINE
  5
181
100
AcDbEntity
  8
Gravur
  6
ByLayer
 62
  256
370
   -1
100
AcDbSpline
210
0
220
0
230
0
 70
    8
 71
    3
 72
    8
 73
    4
 74
    0
 42
1e-07
 43
1e-07
 40
0
 40
0
 40
0
 40
0
 40
1
 40
1
 40
1
 40
1
 10
252.787153776
 20
111.367519056
 30
0
 10
255.285355376
 20
110.804535392
 30
0
 10
258.056475872
 20
110.45540832
 30
0
 10
261.241258112
 20
110.407583392
 30
0
  0
LINE
  5
182
100
AcDbEntity
  8
Gravur
  6
ByLayer
 62
  256
370
   -1
100
AcDbLine
 10
261.241258112
 20
110.407583392
 11
261.194653776
 21
105.89526528
  0
SPLINE
  5
183
100
AcDbEntity
  8
Gravur
  6
ByLayer
 62
  256
370
   -1
100
AcDbSpline
210
0
220
0
230
0
 70
    8
 71
    3
 72
    8
 73
    4
 74
    0
 42
1e-07
 43
1e-07
 40
0
 40
0
 40
0
 40
0
 40
1
 40
1
 40
1
 40
1
 10
261.194653776
 20
105.89526528
 30
0
 10
258.482861792
 20
105.816845312
 30
0
 10
255.76047152
 20
105.879280528
 30
0
 10
253.02138
 20
105.869316608
 30
0
  0
SPLINE
  5
184
100
AcDbEntity
  8
Gravur
  6
ByLayer
 62
  256
370
   -1
100
AcDbSpline
210
0
220
0
230
0
 70
    8
 71
    3
 72
    8
 73
    4
 74
    0
 42
1e-07
 43
1e-07
 40
0
 40
0
 40
0
 40
0
 40
1
 40
1
 40
1
 40
1
 10
253.02138
 20
105.869316608
 30
0
 10
252.901793136
 20
107.709794704
 30
0
 10
252.80022912
 20
109.53901088
 30
0
 10
252.787153776
 20
111.36752944
 30
0
  0
LINE
  5
185
100
AcDbEntity
  8
Gravur
  6
ByLayer
 62
  256
370
   -1
100
AcDbLine
 10
252.787153776
 20
111.36752944
 11
252.787153776
 21
111.367519056
  0
SPLINE
  5
186
100
AcDbEntity
  8
Gravur
  6
ByLayer
 62
  256
370
   -1
100
AcDbSpline
210
0
220
0
230
0
 70
    8
 71
    3
 72
    8
 73
    4
 74
    0
 42
1e-07
 43
1e-07
 40
0
 40
0
 40
0
 40
0
 40
1
 40
1
 40
1
 40
1
 10
271.21256208
 20
111.367519056
 30
0
 10
271.199480128
 20
109.539000496
 30
0
 10
271.097911392
 20
107.70978432
 30
0
 10
270.97832736
 20
105.869306224
 30
0
  0
SPLINE
  5
187
100
AcDbEntity
  8
Gravur
  6
ByLayer
 62
  256
370
   -1
100
AcDbSpline
210
0
220
0
230
0
 70
    8
 71
    3
 72
    8
 73
    4
 74
    0
 42
1e-07
 43
1e-07
 40
0
 40
0
 40
0
 40
0
 40
1
 40
1
 40
1
 40
1
 10
270.97832736
 20
105.869306224
 30
0
 10
268.235260656
 20
105.879296576
 30
0
 10
265.508940512
 20
105.816618752
 30
0
 10
262.793250752
 20
105.895574912
 30
0
  0
LINE
  5
188
100
AcDbEntity
  8
Gravur
  6
ByLayer
 62
  256
370
   -1
100
AcDbLine
 10
262.793250752
 20
105.895574912
 11
262.839572832
 21
110.408478304
  0
SPLINE
  5
189
100
AcDbEntity
  8
Gravur
  6
ByLayer
 62
  256
370
   -1
100
AcDbSpline
210
0
220
0
230
0
 70
    8
 71
    3
 72
    8
 73
    4
 74
    0
 42
1e-07
 43
1e-07
 40
0
 40
0
 40
0
 40
0
 40
1
 40
1
 40
1
 40
1
 10
262.839572832
 20
110.408478304
 30
0
 10
265.990559872
 20
110.460920336
 30
0
 10
268.73544944
 20
110.809294096
 30
0
 10
271.21256208
 20
111.367526608
 30
0
  0
LINE
  5
18A
100
AcDbEntity
  8
Gravur
  6
ByLayer
 62
  256
370
   -1
100
AcDbLine
 10
271.21256208
 20
111.367526608
 11
271.21256208
 21
111.367519056
  0
SPLINE
  5
18B
100
AcDbEntity
  8
Gravur
  6
ByLayer
 62
  256
370
   -1
100
AcDbSpline
210
0
220
0
230
0
 70
    8
 71
    3
 72
    8
 73
    4
 74
    0
 42
1e-07
 43
1e-07
 40
0
 40
0
 40
0
 40
0
 40
1
 40
1
 40
1
 40
1
 10
262.776730752
 20
104.29665792
 30
0
 10
265.505117312
 20
104.216860656
 30
0
 10
268.199434912
 20
104.270069216
 30
0
 10
270.872418112
 20
104.260086416
 30
0
  0
SPLINE
  5
18C
100
AcDbEntity
  8
Gravur
  6
ByLayer
 62
  256
370
   -1
100
AcDbSpline
210
0
220
0
230
0
 70
    8
 71
    3
 72
    8
 73
    4
 74
    0
 42
1e-07
 43
1e-07
 40
0
 40
0
 40
0
 40
0
 40
1
 40
1
 40
1
 40
1
 10
270.872418112
 20
104.260086416
 30
0
 10
270.815494912
 20
103.411090576
 30
0
 10
270.759337296
 20
102.559321264
 30
0
 10
270.710465472
 20
101.702723392
 30
0
  0
SPLINE
  5
18D
100
AcDbEntity
  8
Gravur
  6
ByLayer
 62
  256
370
   -1
100
AcDbSpline
210
0
220
0
230
0
 70
    8
 71
    3
 72
    8
 73
    4
 74
    0
 42
1e-07
 43
1e-07
 40
0
 40
0
 40
0
 40
0
 40
1
 40
1
 40
1
 40
1
 10
270.710465472
 20
101.702723392
 30
0
 10
268.275796016
 20
102.24612
 30
0
 10
265.931428656
 20
102.51065712
 30
0
 10
262.758739056
 20
102.546133584
 30
0
  0
LINE
  5
18E
100
AcDbEntity
  8
Gravur
  6
ByLayer
 62
  256
370
   -1
100
AcDbLine
 10
262.758739056
 20
102.546133584
 11
262.776722256
 21
104.29665792
  0
LINE
  5
18F
100
AcDbEntity
  8
Gravur
  6
ByLayer
 62
  256
370
   -1
100
AcDbLine
 10
262.776722256
 20
104.29665792
 11
262.776730752
 21
104.29665792
  0
LINE
  5
190
100
AcDbEntity
  8
Gravur
  6
ByLayer
 62
  256
370
   -1
100
AcDbLine
 10
261.178132832
 20
104.295592144
 11
261.1601232
 21
102.545059312
  0
SPLINE
  5
191
100
AcDbEntity
  8
Gravur
  6
ByLayer
 62
  256
370
   -1
100
AcDbSpline
210
0
220
0
230
0
 70
    8
 71
    3
 72
    8
 73
    4
 74
    0
 42
1e-07
 43
1e-07
 40
0
 40
0
 40
0
 40
0
 40
1
 40
1
 40
1
 40
1
 10
261.1601232
 20
102.545059312
 30
0
 10
258.028827056
 20
102.505986208
 30
0
 10
255.702954544
 20
102.241553872
 30
0
 10
253.289231504
 20
101.702830064
 30
0
  0
SPLINE
  5
192
100
AcDbEntity
  8
Gravur
  6
ByLayer
 62
  256
370
   -1
100
AcDbSpline
210
0
220
0
230
0
 70
    8
 71
    3
 72
    8
 73
    4
 74
    0
 42
1e-07
 43
1e-07
 40
0
 40
0
 40
0
 40
0
 40
1
 40
1
 40
1
 40
1
 10
253.289231504
 20
101.702830064
 30
0
 10
253.240370064
 20
102.559426992
 30
0
 10
253.184211504
 20
103.411197248
 30
0
 10
253.12727792
 20
104.260193088
 30
0
  0
SPLINE
  5
193
100
AcDbEntity
  8
Gravur
  6
ByLayer
 62
  256
370
   -1
100
AcDbSpline
210
0
220
0
230
0
 70
    8
 71
    3
 72
    8
 73
    4
 74
    0
 42
1e-07
 43
1e-07
 40
0
 40
0
 40
0
 40
0
 40
1
 40
1
 40
1
 40
1
 10
253.12727792
 20
104.260193088
 30
0
 10
255.785611184
 20
104.270130576
 30
0
 10
258.465070224
 20
104.217686656
 30
0
 10
261.17812528
 20
104.295592144
 30
0
  0
LINE
  5
194
100
AcDbEntity
  8
Gravur
  6
ByLayer
 62
  256
370
   -1
100
AcDbLine
 10
261.17812528
 20
104.295592144
 11
261.178132832
 21
104.295592144
  0
SPLINE
  5
195
100
AcDbEntity
  8
Gravur
  6
ByLayer
 62
  256
370
   -1
100
AcDbSpline
210
0
220
0
230
0
 70
    8
 71
    3
 72
    8
 73
    4
 74
    0
 42
1e-07
 43
1e-07
 40
0
 40
0
 40
0
 40
0
 40
1
 40
1
 40
1
 40
1
 10
251.525441136
 20
104.244258368
 30
0
 10
251.59130496
 20
103.267634672
 30
0
 10
251.656383376
 20
102.292207968
 30
0
 10
251.710106416
 20
101.316971952
 30
0
  0
SPLINE
  5
196
100
AcDbEntity
  8
Gravur
  6
ByLayer
 62
  256
370
   -1
100
AcDbSpline
210
0
220
0
230
0
 70
    8
 71
    3
 72
    8
 73
    4
 74
    0
 42
1e-07
 43
1e-07
 40
0
 40
0
 40
0
 40
0
 40
1
 40
1
 40
1
 40
1
 10
251.710106416
 20
101.316971952
 30
0
 10
249.988466592
 20
100.862047968
 30
0
 10
248.096964352
 20
100.259909072
 30
0
 10
245.809812832
 20
99.517178368
 30
0
  0
SPLINE
  5
197
100
AcDbEntity
  8
Gravur
  6
ByLayer
 62
  256
370
   -1
100
AcDbSpline
210
0
220
0
230
0
 70
    8
 71
    3
 72
    8
 73
    4
 74
    0
 42
1e-07
 43
1e-07
 40
0
 40
0
 40
0
 40
0
 40
1
 40
1
 40
1
 40
1
 10
245.809812832
 20
99.517178368
 30
0
 10
245.49357472
 20
100.929422192
 30
0
 10
245.180853952
 20
102.354871632
 30
0
 10
244.915373776
 20
103.807365728
 30
0
  0
SPLINE
  5
198
100
AcDbEntity
  8
Gravur
  6
ByLayer
 62
  256
370
   -1
100
AcDbSpline
210
0
220
0
230
0
 70
    8
 71
    3
 72
    8
 73
    4
 74
    0
 42
1e-07
 43
1e-07
 40
0
 40
0
 40
0
 40
0
 40
1
 40
1
 40
1
 40
1
 10
244.915373776
 20
103.807365728
 30
0
 10
247.110059552
 20
104.101733248
 30
0
 10
249.311307072
 20
104.207895488
 30
0
 10
251.525441136
 20
104.244258368
 30
0
  0
LINE
  5
199
100
AcDbEntity
  8
Gravur
  6
ByLayer
 62
  256
370
   -1
100
AcDbLine
 10
251.525441136
 20
104.244258368
 11
251.525441136
 21
104.244258368
  0
SPLINE
  5
19A
100
AcDbEntity
  8
Gravur
  6
ByLayer
 62
  256
370
   -1
100
AcDbSpline
210
0
220
0
230
0
 70
    8
 71
    3
 72
    8
 73
    4
 74
    0
 42
1e-07
 43
1e-07
 40
0
 40
0
 40
0
 40
0
 40
1
 40
1
 40
1
 40
1
 10
272.474273776
 20
104.244258368
 30
0
 10
274.688397456
 20
104.207895488
 30
0
 10
276.889644976
 20
104.101733248
 30
0
 10
279.084330752
 20
103.807365728
 30
0
  0
SPLINE
  5
19B
100
AcDbEntity
  8
Gravur
  6
ByLayer
 62
  256
370
   -1
100
AcDbSpline
210
0
220
0
230
0
 70
    8
 71
    3
 72
    8
 73
    4
 74
    0
 42
1e-07
 43
1e-07
 40
0
 40
0
 40
0
 40
0
 40
1
 40
1
 40
1
 40
1
 10
279.084330752
 20
103.807365728
 30
0
 10
278.818850576
 20
102.354871632
 30
0
 10
278.506140192
 20
100.929422192
 30
0
 10
278.189891696
 20
99.517178368
 30
0
  0
SPLINE
  5
19C
100
AcDbEntity
  8
Gravur
  6
ByLayer
 62
  256
370
   -1
100
AcDbSpline
210
0
220
0
230
0
 70
    8
 71
    3
 72
    8
 73
    4
 74
    0
 42
1e-07
 43
1e-07
 40
0
 40
0
 40
0
 40
0
 40
1
 40
1
 40
1
 40
1
 10
278.189891696
 20
99.517178368
 30
0
 10
275.902740176
 20
100.259909072
 30
0
 10
274.011245488
 20
100.862047968
 30
0
 10
272.289598112
 20
101.316971952
 30
0
  0
SPLINE
  5
19D
100
AcDbEntity
  8
Gravur
  6
ByLayer
 62
  256
370
   -1
100
AcDbSpline
210
0
220
0
230
0
 70
    8
 71
    3
 72
    8
 73
    4
 74
    0
 42
1e-07
 43
1e-07
 40
0
 40
0
 40
0
 40
0
 40
1
 40
1
 40
1
 40
1
 10
272.289598112
 20
101.316971952
 30
0
 10
272.343321152
 20
102.292207968
 30
0
 10
272.408401456
 20
103.267634672
 30
0
 10
272.474273776
 20
104.244258368
 30
0
  0
LINE
  5
19E
100
AcDbEntity
  8
Gravur
  6
ByLayer
 62
  256
370
   -1
100
AcDbLine
 10
272.474273776
 20
104.244258368
 11
272.474273776
 21
104.244258368
  0
SPLINE
  5
19F
100
AcDbEntity
  8
Gravur
  6
ByLayer
 62
  256
370
   -1
100
AcDbSpline
210
0
220
0
230
0
 70
    8
 71
    3
 72
    8
 73
    4
 74
    0
 42
1e-07
 43
1e-07
 40
0
 40
0
 40
0
 40
0
 40
1
 40
1
 40
1
 40
1
 10
243.334173776
 20
103.559564784
 30
0
 10
243.61771456
 20
102.004628752
 30
0
 10
243.951466704
 20
100.496344256
 30
0
 10
244.28260208
 20
99.020691008
 30
0
  0
SPLINE
  5
1A0
100
AcDbEntity
  8
Gravur
  6
ByLayer
 62
  256
370
   -1
100
AcDbSpline
210
0
220
0
230
0
 70
    8
 71
    3
 72
    8
 73
    4
 74
    0
 42
1e-07
 43
1e-07
 40
0
 40
0
 40
0
 40
0
 40
1
 40
1
 40
1
 40
1
 10
244.28260208
 20
99.020691008
 30
0
 10
244.015835232
 20
98.93389964800001
 30
0
 10
243.788211344
 20
98.86005147200001
 30
0
 10
243.50969264
 20
98.769645536
 30
0
  0
SPLINE
  5
1A1
100
AcDbEntity
  8
Gravur
  6
ByLayer
 62
  256
370
   -1
100
AcDbSpline
210
0
220
0
230
0
 70
    8
 71
    3
 72
    8
 73
    4
 74
    0
 42
1e-07
 43
1e-07
 40
0
 40
0
 40
0
 40
0
 40
1
 40
1
 40
1
 40
1
 10
243.50969264
 20
98.769645536
 30
0
 10
243.15168064
 20
98.653436304
 30
0
 10
242.94415168
 20
98.708859488
 30
0
 10
242.570713776
 20
99.04104459199999
 30
0
  0
SPLINE
  5
1A2
100
AcDbEntity
  8
Gravur
  6
ByLayer
 62
  256
370
   -1
100
AcDbSpline
210
0
220
0
230
0
 70
    8
 71
    3
 72
    8
 73
    4
 74
    0
 42
1e-07
 43
1e-07
 40
0
 40
0
 40
0
 40
0
 40
1
 40
1
 40
1
 40
1
 10
242.570713776
 20
99.04104459199999
 30
0
 10
242.197275872
 20
99.373238192
 30
0
 10
241.77166592
 20
100.023210512
 30
0
 10
241.405458112
 20
100.886563648
 30
0
  0
SPLINE
  5
1A3
100
AcDbEntity
  8
Gravur
  6
ByLayer
 62
  256
370
   -1
100
AcDbSpline
210
0
220
0
230
0
 70
    8
 71
    3
 72
    8
 73
    4
 74
    0
 42
1e-07
 43
1e-07
 40
0
 40
0
 40
0
 40
0
 40
1
 40
1
 40
1
 40
1
 10
241.405458112
 20
100.886563648
 30
0
 10
241.14688896
 20
101.496180912
 30
0
 10
240.91494816
 20
102.208768752
 30
0
 10
240.713685472
 20
102.983726672
 30
0
  0
SPLINE
  5
1A4
100
AcDbEntity
  8
Gravur
  6
ByLayer
 62
  256
370
   -1
100
AcDbSpline
210
0
220
0
230
0
 70
    8
 71
    3
 72
    8
 73
    4
 74
    0
 42
1e-07
 43
1e-07
 40
0
 40
0
 40
0
 40
0
 40
1
 40
1
 40
1
 40
1
 10
240.713685472
 20
102.983726672
 30
0
 10
241.5867552
 20
103.214468592
 30
0
 10
242.46011568
 20
103.403918064
 30
0
 10
243.334173776
 20
103.559564784
 30
0
  0
LINE
  5
1A5
100
AcDbEntity
  8
Gravur
  6
ByLayer
 62
  256
370
   -1
100
AcDbLine
 10
243.334173776
 20
103.559564784
 11
243.334173776
 21
103.559564784
  0
SPLINE
  5
1A6
100
AcDbEntity
  8
Gravur
  6
ByLayer
 62
  256
370
   -1
100
AcDbSpline
210
0
220
0
230
0
 70
    8
 71
    3
 72
    8
 73
    4
 74
    0
 42
1e-07
 43
1e-07
 40
0
 40
0
 40
0
 40
0
 40
1
 40
1
 40
1
 40
1
 10
280.665530752
 20
103.559564784
 30
0
 10
281.539599232
 20
103.403918064
 30
0
 10
282.412959712
 20
103.214468592
 30
0
 10
283.286018112
 20
102.983726672
 30
0
  0
SPLINE
  5
1A7
100
AcDbEntity
  8
Gravur
  6
ByLayer
 62
  256
370
   -1
100
AcDbSpline
210
0
220
0
230
0
 70
    8
 71
    3
 72
    8
 73
    4
 74
    0
 42
1e-07
 43
1e-07
 40
0
 40
0
 40
0
 40
0
 40
1
 40
1
 40
1
 40
1
 10
283.286018112
 20
102.983726672
 30
0
 10
283.084766752
 20
102.208768752
 30
0
 10
282.8528184
 20
101.496180912
 30
0
 10
282.594246416
 20
100.886563648
 30
0
  0
SPLINE
  5
1A8
100
AcDbEntity
  8
Gravur
  6
ByLayer
 62
  256
370
   -1
100
AcDbSpline
210
0
220
0
230
0
 70
    8
 71
    3
 72
    8
 73
    4
 74
    0
 42
1e-07
 43
1e-07
 40
0
 40
0
 40
0
 40
0
 40
1
 40
1
 40
1
 40
1
 10
282.594246416
 20
100.886563648
 30
0
 10
282.228038608
 20
100.023210512
 30
0
 10
281.802428656
 20
99.373238192
 30
0
 10
281.429001136
 20
99.04104459199999
 30
0
  0
SPLINE
  5
1A9
100
AcDbEntity
  8
Gravur
  6
ByLayer
 62
  256
370
   -1
100
AcDbSpline
210
0
220
0
230
0
 70
    8
 71
    3
 72
    8
 73
    4
 74
    0
 42
1e-07
 43
1e-07
 40
0
 40
0
 40
0
 40
0
 40
1
 40
1
 40
1
 40
1
 10
281.429001136
 20
99.04104459199999
 30
0
 10
281.055563232
 20
98.708859488
 30
0
 10
280.848023888
 20
98.653436304
 30
0
 10
280.490011888
 20
98.769645536
 30
0
  0
SPLINE
  5
1AA
100
AcDbEntity
  8
Gravur
  6
ByLayer
 62
  256
370
   -1
100
AcDbSpline
210
0
220
0
230
0
 70
    8
 71
    3
 72
    8
 73
    4
 74
    0
 42
1e-07
 43
1e-07
 40
0
 40
0
 40
0
 40
0
 40
1
 40
1
 40
1
 40
1
 10
280.490011888
 20
98.769645536
 30
0
 10
280.211504512
 20
98.86005147200001
 30
0
 10
279.983868352
 20
98.93389964800001
 30
0
 10
279.717112832
 20
99.020691008
 30
0
  0
SPLINE
  5
1AB
100
AcDbEntity
  8
Gravur
  6
ByLayer
 62
  256
370
   -1
100
AcDbSpline
210
0
220
0
230
0
 70
    8
 71
    3
 72
    8
 73
    4
 74
    0
 42
1e-07
 43
1e-07
 40
0
 40
0
 40
0
 40
0
 40
1
 40
1
 40
1
 40
1
 10
279.717112832
 20
99.020691008
 30
0
 10
280.048248208
 20
100.496344256
 30
0
 10
280.381989968
 20
102.004628752
 30
0
 10
280.665530752
 20
103.559564784
 30
0
  0
LINE
  5
1AC
100
AcDbEntity
  8
Gravur
  6
ByLayer
 62
  256
370
   -1
100
AcDbLine
 10
280.665530752
 20
103.559564784
 11
280.665530752
 21
103.559564784
  0
SPLINE
  5
1AD
100
AcDbEntity
  8
Gravur
  6
ByLayer
 62
  256
370
   -1
100
AcDbSpline
210
0
220
0
230
0
 70
    8
 71
    3
 72
    8
 73
    4
 74
    0
 42
1e-07
 43
1e-07
 40
0
 40
0
 40
0
 40
0
 40
1
 40
1
 40
1
 40
1
 10
172.492801792
 20
42.492929616
 30
0
 10
171.987969472
 20
42.50627683200003
 30
0
 10
171.502129488
 20
42.36595217600001
 30
0
 10
171.118394432
 20
42.07550320000001
 30
0
  0
SPLINE
  5
1AE
100
AcDbEntity
  8
Gravur
  6
ByLayer
 62
  256
370
   -1
100
AcDbSpline
210
0
220
0
230
0
 70
    8
 71
    3
 72
    8
 73
    4
 74
    0
 42
1e-07
 43
1e-07
 40
0
 40
0
 40
0
 40
0
 40
1
 40
1
 40
1
 40
1
 10
171.118394432
 20
42.07550320000001
 30
0
 10
170.436202448
 20
41.55916446400001
 30
0
 10
170.051354416
 20
40.76120032000001
 30
0
 10
169.769361792
 20
39.82229886400002
 30
0
  0
SPLINE
  5
1AF
100
AcDbEntity
  8
Gravur
  6
ByLayer
 62
  256
370
   -1
100
AcDbSpline
210
0
220
0
230
0
 70
    8
 71
    3
 72
    8
 73
    4
 74
    0
 42
1e-07
 43
1e-07
 40
0
 40
0
 40
0
 40
0
 40
1
 40
1
 40
1
 40
1
 10
169.769361792
 20
39.82229886400002
 30
0
 10
169.205357664
 20
37.94449312
 30
0
 10
169.096326608
 20
35.37113968000002
 30
0
 10
169.301487072
 20
32.74554433600001
 30
0
  0
SPLINE
  5
1B0
100
AcDbEntity
  8
Gravur
  6
ByLayer
 62
  256
370
   -1
100
AcDbSpline
210
0
220
0
230
0
 70
    8
 71
    3
 72
    8
 73
    4
 74
    0
 42
1e-07
 43
1e-07
 40
0
 40
0
 40
0
 40
0
 40
1
 40
1
 40
1
 40
1
 10
169.301487072
 20
32.74554433600001
 30
0
 10
169.506647536
 20
30.11994144000002
 30
0
 10
170.032398896
 20
27.46869856000001
 30
0
 10
170.874425184
 20
25.48353452800001
 30
0
  0
SPLINE
  5
1B1
100
AcDbEntity
  8
Gravur
  6
ByLayer
 62
  256
370
   -1
100
AcDbSpline
210
0
220
0
230
0
 70
    8
 71
    3
 72
    8
 73
    4
 74
    0
 42
1e-07
 43
1e-07
 40
0
 40
0
 40
0
 40
0
 40
1
 40
1
 40
1
 40
1
 10
170.874425184
 20
25.48353452800001
 30
0
 10
171.295439744
 20
24.49094401600002
 30
0
 10
171.788142608
 20
23.65549552000001
 30
0
 10
172.448839712
 20
23.06776961600002
 30
0
  0
SPLINE
  5
1B2
100
AcDbEntity
  8
Gravur
  6
ByLayer
 62
  256
370
   -1
100
AcDbSpline
210
0
220
0
230
0
 70
    8
 71
    3
 72
    8
 73
    4
 74
    0
 42
1e-07
 43
1e-07
 40
0
 40
0
 40
0
 40
0
 40
1
 40
1
 40
1
 40
1
 10
172.448839712
 20
23.06776961600002
 30
0
 10
173.109545312
 20
22.48005504000001
 30
0
 10
174.051761152
 20
22.18088350400001
 30
0
 10
174.943660848
 20
22.47039697600001
 30
0
  0
SPLINE
  5
1B3
100
AcDbEntity
  8
Gravur
  6
ByLayer
 62
  256
370
   -1
100
AcDbSpline
210
0
220
0
230
0
 70
    8
 71
    3
 72
    8
 73
    4
 74
    0
 42
1e-07
 43
1e-07
 40
0
 40
0
 40
0
 40
0
 40
1
 40
1
 40
1
 40
1
 10
174.943660848
 20
22.47039697600001
 30
0
 10
183.274414592
 20
25.17459070400001
 30
0
 10
185.834806912
 20
26.17353244800001
 30
0
 10
192.940427072
 20
26.17353244800001
 30
0
  0
SPLINE
  5
1B4
100
AcDbEntity
  8
Gravur
  6
ByLayer
 62
  256
370
   -1
100
AcDbSpline
210
0
220
0
230
0
 70
    8
 71
    3
 72
    8
 73
    4
 74
    0
 42
1e-07
 43
1e-07
 40
0
 40
0
 40
0
 40
0
 40
1
 40
1
 40
1
 40
1
 10
192.940427072
 20
26.17353244800001
 30
0
 10
200.046055728
 20
26.17353244800001
 30
0
 10
202.606154464
 20
25.17459070400001
 30
0
 10
210.936908208
 20
22.47039697600001
 30
0
  0
SPLINE
  5
1B5
100
AcDbEntity
  8
Gravur
  6
ByLayer
 62
  256
370
   -1
100
AcDbSpline
210
0
220
0
230
0
 70
    8
 71
    3
 72
    8
 73
    4
 74
    0
 42
1e-07
 43
1e-07
 40
0
 40
0
 40
0
 40
0
 40
1
 40
1
 40
1
 40
1
 10
210.936908208
 20
22.47039697600001
 30
0
 10
211.828807904
 20
22.18088350400001
 30
0
 10
212.77101336
 20
22.48004182400002
 30
0
 10
213.431721792
 20
23.06776961600002
 30
0
  0
SPLINE
  5
1B6
100
AcDbEntity
  8
Gravur
  6
ByLayer
 62
  256
370
   -1
100
AcDbSpline
210
0
220
0
230
0
 70
    8
 71
    3
 72
    8
 73
    4
 74
    0
 42
1e-07
 43
1e-07
 40
0
 40
0
 40
0
 40
0
 40
1
 40
1
 40
1
 40
1
 10
213.431721792
 20
23.06776961600002
 30
0
 10
214.092416064
 20
23.65549552000001
 30
0
 10
214.585118928
 20
24.49094401600002
 30
0
 10
215.006133488
 20
25.48353452800001
 30
0
  0
SPLINE
  5
1B7
100
AcDbEntity
  8
Gravur
  6
ByLayer
 62
  256
370
   -1
100
AcDbSpline
210
0
220
0
230
0
 70
    8
 71
    3
 72
    8
 73
    4
 74
    0
 42
1e-07
 43
1e-07
 40
0
 40
0
 40
0
 40
0
 40
1
 40
1
 40
1
 40
1
 10
215.006133488
 20
25.48353452800001
 30
0
 10
215.848162608
 20
27.46869856000001
 30
0
 10
216.373913968
 20
30.11994144000002
 30
0
 10
216.5790716
 20
32.74554433600001
 30
0
  0
SPLINE
  5
1B8
100
AcDbEntity
  8
Gravur
  6
ByLayer
 62
  256
370
   -1
100
AcDbSpline
210
0
220
0
230
0
 70
    8
 71
    3
 72
    8
 73
    4
 74
    0
 42
1e-07
 43
1e-07
 40
0
 40
0
 40
0
 40
0
 40
1
 40
1
 40
1
 40
1
 10
216.5790716
 20
32.74554433600001
 30
0
 10
216.784232064
 20
35.37113968000002
 30
0
 10
216.675201008
 20
37.94449312
 30
0
 10
216.11119688
 20
39.82229886400002
 30
0
  0
SPLINE
  5
1B9
100
AcDbEntity
  8
Gravur
  6
ByLayer
 62
  256
370
   -1
100
AcDbSpline
210
0
220
0
230
0
 70
    8
 71
    3
 72
    8
 73
    4
 74
    0
 42
1e-07
 43
1e-07
 40
0
 40
0
 40
0
 40
0
 40
1
 40
1
 40
1
 40
1
 10
216.11119688
 20
39.82229886400002
 30
0
 10
215.829207088
 20
40.76120032000001
 30
0
 10
215.444366608
 20
41.55916446400001
 30
0
 10
214.762166128
 20
42.07550320000001
 30
0
  0
SPLINE
  5
1BA
100
AcDbEntity
  8
Gravur
  6
ByLayer
 62
  256
370
   -1
100
AcDbSpline
210
0
220
0
230
0
 70
    8
 71
    3
 72
    8
 73
    4
 74
    0
 42
1e-07
 43
1e-07
 40
0
 40
0
 40
0
 40
0
 40
1
 40
1
 40
1
 40
1
 10
214.762166128
 20
42.07550320000001
 30
0
 10
214.079974144
 20
42.59185326400001
 30
0
 10
213.07516072
 20
42.63386126400002
 30
0
 10
212.21483688
 20
42.18111886400002
 30
0
  0
SPLINE
  5
1BB
100
AcDbEntity
  8
Gravur
  6
ByLayer
 62
  256
370
   -1
100
AcDbSpline
210
0
220
0
230
0
 70
    8
 71
    3
 72
    8
 73
    4
 74
    0
 42
1e-07
 43
1e-07
 40
0
 40
0
 40
0
 40
0
 40
1
 40
1
 40
1
 40
1
 10
212.21483688
 20
42.18111886400002
 30
0
 10
206.909199104
 20
39.38903212800003
 30
0
 10
201.565772064
 20
37.22128622400001
 30
0
 10
192.940427072
 20
37.22128622400001
 30
0
  0
SPLINE
  5
1BC
100
AcDbEntity
  8
Gravur
  6
ByLayer
 62
  256
370
   -1
100
AcDbSpline
210
0
220
0
230
0
 70
    8
 71
    3
 72
    8
 73
    4
 74
    0
 42
1e-07
 43
1e-07
 40
0
 40
0
 40
0
 40
0
 40
1
 40
1
 40
1
 40
1
 10
192.940427072
 20
37.22128622400001
 30
0
 10
184.315079248
 20
37.22128622400001
 30
0
 10
178.971359568
 20
39.38903212800003
 30
0
 10
173.665721792
 20
42.18111886400002
 30
0
  0
SPLINE
  5
1BD
100
AcDbEntity
  8
Gravur
  6
ByLayer
 62
  256
370
   -1
100
AcDbSpline
210
0
220
0
230
0
 70
    8
 71
    3
 72
    8
 73
    4
 74
    0
 42
1e-07
 43
1e-07
 40
0
 40
0
 40
0
 40
0
 40
1
 40
1
 40
1
 40
1
 10
173.665721792
 20
42.18111886400002
 30
0
 10
173.289329168
 20
42.37919838400002
 30
0
 10
172.885448208
 20
42.48256544000002
 30
0
 10
172.492801792
 20
42.492929616
 30
0
  0
LINE
  5
1BE
100
AcDbEntity
  8
Gravur
  6
ByLayer
 62
  256
370
   -1
100
AcDbLine
 10
172.492801792
 20
42.492929616
 11
172.492801792
 21
42.492929616
  0
SPLINE
  5
1BF
100
AcDbEntity
  8
Gravur
  6
ByLayer
 62
  256
370
   -1
100
AcDbSpline
210
0
220
0
230
0
 70
    8
 71
    3
 72
    8
 73
    4
 74
    0
 42
1e-07
 43
1e-07
 40
0
 40
0
 40
0
 40
0
 40
1
 40
1
 40
1
 40
1
 10
172.406359712
 20
40.94595056000001
 30
0
 10
172.525973008
 20
40.94754875200001
 30
0
 10
172.677514272
 20
40.89495568000001
 30
0
 10
172.921432544
 20
40.76659056
 30
0
  0
SPLINE
  5
1C0
100
AcDbEntity
  8
Gravur
  6
ByLayer
 62
  256
370
   -1
100
AcDbSpline
210
0
220
0
230
0
 70
    8
 71
    3
 72
    8
 73
    4
 74
    0
 42
1e-07
 43
1e-07
 40
0
 40
0
 40
0
 40
0
 40
1
 40
1
 40
1
 40
1
 10
172.921432544
 20
40.76659056
 30
0
 10
173.206870768
 20
40.61638128000002
 30
0
 10
173.493977984
 20
40.46867360000001
 30
0
 10
173.781653488
 20
40.32173150400002
 30
0
  0
SPLINE
  5
1C1
100
AcDbEntity
  8
Gravur
  6
ByLayer
 62
  256
370
   -1
100
AcDbSpline
210
0
220
0
230
0
 70
    8
 71
    3
 72
    8
 73
    4
 74
    0
 42
1e-07
 43
1e-07
 40
0
 40
0
 40
0
 40
0
 40
1
 40
1
 40
1
 40
1
 10
173.781653488
 20
40.32173150400002
 30
0
 10
173.317204544
 20
36.78055150400002
 30
0
 10
173.529209008
 20
33.48030862400001
 30
0
 10
174.008505184
 20
30.35987792000001
 30
0
  0
SPLINE
  5
1C2
100
AcDbEntity
  8
Gravur
  6
ByLayer
 62
  256
370
   -1
100
AcDbSpline
210
0
220
0
230
0
 70
    8
 71
    3
 72
    8
 73
    4
 74
    0
 42
1e-07
 43
1e-07
 40
0
 40
0
 40
0
 40
0
 40
1
 40
1
 40
1
 40
1
 10
174.008505184
 20
30.35987792000001
 30
0
 10
173.110544064
 20
30.19903070400001
 30
0
 10
172.210044528
 20
30.00386908800002
 30
0
 10
171.306600656
 20
29.76663150400001
 30
0
  0
SPLINE
  5
1C3
100
AcDbEntity
  8
Gravur
  6
ByLayer
 62
  256
370
   -1
100
AcDbSpline
210
0
220
0
230
0
 70
    8
 71
    3
 72
    8
 73
    4
 74
    0
 42
1e-07
 43
1e-07
 40
0
 40
0
 40
0
 40
0
 40
1
 40
1
 40
1
 40
1
 10
171.306600656
 20
29.76663150400001
 30
0
 10
171.117563712
 20
30.76741121600002
 30
0
 10
170.976916208
 20
31.82271070400002
 30
0
 10
170.895080848
 20
32.87003150400001
 30
0
  0
SPLINE
  5
1C4
100
AcDbEntity
  8
Gravur
  6
ByLayer
 62
  256
370
   -1
100
AcDbSpline
210
0
220
0
230
0
 70
    8
 71
    3
 72
    8
 73
    4
 74
    0
 42
1e-07
 43
1e-07
 40
0
 40
0
 40
0
 40
0
 40
1
 40
1
 40
1
 40
1
 10
170.895080848
 20
32.87003150400001
 30
0
 10
170.700297776
 20
35.36285136000001
 30
0
 10
170.840774416
 20
37.83205422400002
 30
0
 10
171.300406128
 20
39.36238961600002
 30
0
  0
SPLINE
  5
1C5
100
AcDbEntity
  8
Gravur
  6
ByLayer
 62
  256
370
   -1
100
AcDbSpline
210
0
220
0
230
0
 70
    8
 71
    3
 72
    8
 73
    4
 74
    0
 42
1e-07
 43
1e-07
 40
0
 40
0
 40
0
 40
0
 40
1
 40
1
 40
1
 40
1
 10
171.300406128
 20
39.36238961600002
 30
0
 10
171.530222928
 20
40.12756864000001
 30
0
 10
171.850825152
 20
40.625048144
 30
0
 10
172.083040656
 20
40.80081150400001
 30
0
  0
SPLINE
  5
1C6
100
AcDbEntity
  8
Gravur
  6
ByLayer
 62
  256
370
   -1
100
AcDbSpline
210
0
220
0
230
0
 70
    8
 71
    3
 72
    8
 73
    4
 74
    0
 42
1e-07
 43
1e-07
 40
0
 40
0
 40
0
 40
0
 40
1
 40
1
 40
1
 40
1
 10
172.083040656
 20
40.80081150400001
 30
0
 10
172.199150768
 20
40.88869696000002
 30
0
 10
172.286753968
 20
40.94441089600001
 30
0
 10
172.406359712
 20
40.94595056000001
 30
0
  0
LINE
  5
1C7
100
AcDbEntity
  8
Gravur
  6
ByLayer
 62
  256
370
   -1
100
AcDbLine
 10
172.406359712
 20
40.94595056000001
 11
172.406359712
 21
40.94595056000001
  0
SPLINE
  5
1C8
100
AcDbEntity
  8
Gravur
  6
ByLayer
 62
  256
370
   -1
100
AcDbSpline
210
0
220
0
230
0
 70
    8
 71
    3
 72
    8
 73
    4
 74
    0
 42
1e-07
 43
1e-07
 40
0
 40
0
 40
0
 40
0
 40
1
 40
1
 40
1
 40
1
 10
213.47419896
 20
40.94595056000001
 30
0
 10
213.593804704
 20
40.94435236800003
 30
0
 10
213.681407904
 20
40.88869696000002
 30
0
 10
213.797520848
 20
40.80081150400001
 30
0
  0
SPLINE
  5
1C9
100
AcDbEntity
  8
Gravur
  6
ByLayer
 62
  256
370
   -1
100
AcDbSpline
210
0
220
0
230
0
 70
    8
 71
    3
 72
    8
 73
    4
 74
    0
 42
1e-07
 43
1e-07
 40
0
 40
0
 40
0
 40
0
 40
1
 40
1
 40
1
 40
1
 10
213.797520848
 20
40.80081150400001
 30
0
 10
214.029736352
 20
40.625048144
 30
0
 10
214.3503348
 20
40.12756864000001
 30
0
 10
214.580152544
 20
39.36238961600002
 30
0
  0
SPLINE
  5
1CA
100
AcDbEntity
  8
Gravur
  6
ByLayer
 62
  256
370
   -1
100
AcDbSpline
210
0
220
0
230
0
 70
    8
 71
    3
 72
    8
 73
    4
 74
    0
 42
1e-07
 43
1e-07
 40
0
 40
0
 40
0
 40
0
 40
1
 40
1
 40
1
 40
1
 10
214.580152544
 20
39.36238961600002
 30
0
 10
215.039787088
 20
37.83205422400002
 30
0
 10
215.180272224
 20
35.36285136000001
 30
0
 10
214.985477824
 20
32.87003150400001
 30
0
  0
SPLINE
  5
1CB
100
AcDbEntity
  8
Gravur
  6
ByLayer
 62
  256
370
   -1
100
AcDbSpline
210
0
220
0
230
0
 70
    8
 71
    3
 72
    8
 73
    4
 74
    0
 42
1e-07
 43
1e-07
 40
0
 40
0
 40
0
 40
0
 40
1
 40
1
 40
1
 40
1
 10
214.985477824
 20
32.87003150400001
 30
0
 10
214.903642464
 20
31.82271070400002
 30
0
 10
214.76299496
 20
30.76741121600002
 30
0
 10
214.573960848
 20
29.76663150400001
 30
0
  0
SPLINE
  5
1CC
100
AcDbEntity
  8
Gravur
  6
ByLayer
 62
  256
370
   -1
100
AcDbSpline
210
0
220
0
230
0
 70
    8
 71
    3
 72
    8
 73
    4
 74
    0
 42
1e-07
 43
1e-07
 40
0
 40
0
 40
0
 40
0
 40
1
 40
1
 40
1
 40
1
 10
214.573960848
 20
29.76663150400001
 30
0
 10
213.670514144
 20
30.00386908800002
 30
0
 10
212.770014608
 20
30.19903070400001
 30
0
 10
211.872053488
 20
30.35987792000001
 30
0
  0
SPLINE
  5
1CD
100
AcDbEntity
  8
Gravur
  6
ByLayer
 62
  256
370
   -1
100
AcDbSpline
210
0
220
0
230
0
 70
    8
 71
    3
 72
    8
 73
    4
 74
    0
 42
1e-07
 43
1e-07
 40
0
 40
0
 40
0
 40
0
 40
1
 40
1
 40
1
 40
1
 10
211.872053488
 20
30.35987792000001
 30
0
 10
212.351349664
 20
33.48030862400001
 30
0
 10
212.563354128
 20
36.78055150400002
 30
0
 10
212.098905184
 20
40.32173150400002
 30
0
  0
SPLINE
  5
1CE
100
AcDbEntity
  8
Gravur
  6
ByLayer
 62
  256
370
   -1
100
AcDbSpline
210
0
220
0
230
0
 70
    8
 71
    3
 72
    8
 73
    4
 74
    0
 42
1e-07
 43
1e-07
 40
0
 40
0
 40
0
 40
0
 40
1
 40
1
 40
1
 40
1
 10
212.098905184
 20
40.32173150400002
 30
0
 10
212.386580688
 20
40.46867360000001
 30
0
 10
212.673687904
 20
40.61638128000002
 30
0
 10
212.959125184
 20
40.76659056
 30
0
  0
SPLINE
  5
1CF
100
AcDbEntity
  8
Gravur
  6
ByLayer
 62
  256
370
   -1
100
AcDbSpline
210
0
220
0
230
0
 70
    8
 71
    3
 72
    8
 73
    4
 74
    0
 42
1e-07
 43
1e-07
 40
0
 40
0
 40
0
 40
0
 40
1
 40
1
 40
1
 40
1
 10
212.959125184
 20
40.76659056
 30
0
 10
213.2030444
 20
40.89495568000001
 30
0
 10
213.354585664
 20
40.94749022400002
 30
0
 10
213.47419896
 20
40.94595056000001
 30
0
  0
LINE
  5
1D0
100
AcDbEntity
  8
Gravur
  6
ByLayer
 62
  256
370
   -1
100
AcDbLine
 10
213.47419896
 20
40.94595056000001
 11
213.47419896
 21
40.94595056000001
  0
SPLINE
  5
1D1
100
AcDbEntity
  8
Gravur
  6
ByLayer
 62
  256
370
   -1
100
AcDbSpline
210
0
220
0
230
0
 70
    8
 71
    3
 72
    8
 73
    4
 74
    0
 42
1e-07
 43
1e-07
 40
0
 40
0
 40
0
 40
0
 40
1
 40
1
 40
1
 40
1
 10
175.300608016
 20
39.57007056000002
 30
0
 10
177.416449968
 20
38.56115168000001
 30
0
 10
179.639569968
 20
37.667411184
 30
0
 10
182.127197824
 20
36.98675886400001
 30
0
  0
SPLINE
  5
1D2
100
AcDbEntity
  8
Gravur
  6
ByLayer
 62
  256
370
   -1
100
AcDbSpline
210
0
220
0
230
0
 70
    8
 71
    3
 72
    8
 73
    4
 74
    0
 42
1e-07
 43
1e-07
 40
0
 40
0
 40
0
 40
0
 40
1
 40
1
 40
1
 40
1
 10
182.127197824
 20
36.98675886400001
 30
0
 10
182.126665408
 20
34.99725998400001
 30
0
 10
182.232691712
 20
33.03170188800001
 30
0
 10
182.359365184
 20
31.07584622400001
 30
0
  0
SPLINE
  5
1D3
100
AcDbEntity
  8
Gravur
  6
ByLayer
 62
  256
370
   -1
100
AcDbSpline
210
0
220
0
230
0
 70
    8
 71
    3
 72
    8
 73
    4
 74
    0
 42
1e-07
 43
1e-07
 40
0
 40
0
 40
0
 40
0
 40
1
 40
1
 40
1
 40
1
 10
182.359365184
 20
31.07584622400001
 30
0
 10
180.116045472
 20
31.037444304
 30
0
 10
177.860469808
 20
30.92175521600001
 30
0
 10
175.588829152
 20
30.61033150400002
 30
0
  0
SPLINE
  5
1D4
100
AcDbEntity
  8
Gravur
  6
ByLayer
 62
  256
370
   -1
100
AcDbSpline
210
0
220
0
230
0
 70
    8
 71
    3
 72
    8
 73
    4
 74
    0
 42
1e-07
 43
1e-07
 40
0
 40
0
 40
0
 40
0
 40
1
 40
1
 40
1
 40
1
 10
175.588829152
 20
30.61033150400002
 30
0
 10
175.150982128
 20
33.46387358400002
 30
0
 10
174.950014912
 20
36.42586144000002
 30
0
 10
175.300608016
 20
39.57007056000002
 30
0
  0
LINE
  5
1D5
100
AcDbEntity
  8
Gravur
  6
ByLayer
 62
  256
370
   -1
100
AcDbLine
 10
175.300608016
 20
39.57007056000002
 11
175.300608016
 21
39.57007056000002
  0
SPLINE
  5
1D6
100
AcDbEntity
  8
Gravur
  6
ByLayer
 62
  256
370
   -1
100
AcDbSpline
210
0
220
0
230
0
 70
    8
 71
    3
 72
    8
 73
    4
 74
    0
 42
1e-07
 43
1e-07
 40
0
 40
0
 40
0
 40
0
 40
1
 40
1
 40
1
 40
1
 10
210.579953488
 20
39.57007056000002
 30
0
 10
210.930545648
 20
36.42586144000002
 30
0
 10
210.729586928
 20
33.46387358400002
 30
0
 10
210.291739904
 20
30.61033150400002
 30
0
  0
SPLINE
  5
1D7
100
AcDbEntity
  8
Gravur
  6
ByLayer
 62
  256
370
   -1
100
AcDbSpline
210
0
220
0
230
0
 70
    8
 71
    3
 72
    8
 73
    4
 74
    0
 42
1e-07
 43
1e-07
 40
0
 40
0
 40
0
 40
0
 40
1
 40
1
 40
1
 40
1
 10
210.291739904
 20
30.61033150400002
 30
0
 10
208.020088864
 20
30.92175521600001
 30
0
 10
205.7645132
 20
31.037444304
 30
0
 10
203.521193488
 20
31.07584622400001
 30
0
  0
SPLINE
  5
1D8
100
AcDbEntity
  8
Gravur
  6
ByLayer
 62
  256
370
   -1
100
AcDbSpline
210
0
220
0
230
0
 70
    8
 71
    3
 72
    8
 73
    4
 74
    0
 42
1e-07
 43
1e-07
 40
0
 40
0
 40
0
 40
0
 40
1
 40
1
 40
1
 40
1
 10
203.521193488
 20
31.07584622400001
 30
0
 10
203.647877344
 20
33.03170188800001
 30
0
 10
203.753909312
 20
34.99725998400001
 30
0
 10
203.753359904
 20
36.98675886400001
 30
0
  0
SPLINE
  5
1D9
100
AcDbEntity
  8
Gravur
  6
ByLayer
 62
  256
370
   -1
100
AcDbSpline
210
0
220
0
230
0
 70
    8
 71
    3
 72
    8
 73
    4
 74
    0
 42
1e-07
 43
1e-07
 40
0
 40
0
 40
0
 40
0
 40
1
 40
1
 40
1
 40
1
 10
203.753359904
 20
36.98675886400001
 30
0
 10
206.240988704
 20
37.667411184
 30
0
 10
208.464119088
 20
38.56115168000001
 30
0
 10
210.579953488
 20
39.57007056000002
 30
0
  0
LINE
  5
1DA
100
AcDbEntity
  8
Gravur
  6
ByLayer
 62
  256
370
   -1
100
AcDbLine
 10
210.579953488
 20
39.57007056000002
 11
210.579953488
 21
39.57007056000002
  0
SPLINE
  5
1DB
100
AcDbEntity
  8
Gravur
  6
ByLayer
 62
  256
370
   -1
100
AcDbSpline
210
0
220
0
230
0
 70
    8
 71
    3
 72
    8
 73
    4
 74
    0
 42
1e-07
 43
1e-07
 40
0
 40
0
 40
0
 40
0
 40
1
 40
1
 40
1
 40
1
 10
183.727580848
 20
36.58880528000001
 30
0
 10
186.225782448
 20
36.02582161600002
 30
0
 10
188.996902944
 20
35.67669454400001
 30
0
 10
192.181685184
 20
35.62886961600001
 30
0
  0
LINE
  5
1DC
100
AcDbEntity
  8
Gravur
  6
ByLayer
 62
  256
370
   -1
100
AcDbLine
 10
192.181685184
 20
35.62886961600001
 11
192.135080848
 21
31.11655150400001
  0
SPLINE
  5
1DD
100
AcDbEntity
  8
Gravur
  6
ByLayer
 62
  256
370
   -1
100
AcDbSpline
210
0
220
0
230
0
 70
    8
 71
    3
 72
    8
 73
    4
 74
    0
 42
1e-07
 43
1e-07
 40
0
 40
0
 40
0
 40
0
 40
1
 40
1
 40
1
 40
1
 10
192.135080848
 20
31.11655150400001
 30
0
 10
189.423288864
 20
31.03813153600001
 30
0
 10
186.700898592
 20
31.10056675200001
 30
0
 10
183.961807072
 20
31.09060283200002
 30
0
  0
SPLINE
  5
1DE
100
AcDbEntity
  8
Gravur
  6
ByLayer
 62
  256
370
   -1
100
AcDbSpline
210
0
220
0
230
0
 70
    8
 71
    3
 72
    8
 73
    4
 74
    0
 42
1e-07
 43
1e-07
 40
0
 40
0
 40
0
 40
0
 40
1
 40
1
 40
1
 40
1
 10
183.961807072
 20
31.09060283200002
 30
0
 10
183.842220208
 20
32.93108092800001
 30
0
 10
183.740656192
 20
34.76029710400001
 30
0
 10
183.727580848
 20
36.58881566400001
 30
0
  0
LINE
  5
1DF
100
AcDbEntity
  8
Gravur
  6
ByLayer
 62
  256
370
   -1
100
AcDbLine
 10
183.727580848
 20
36.58881566400001
 11
183.727580848
 21
36.58880528000001
  0
SPLINE
  5
1E0
100
AcDbEntity
  8
Gravur
  6
ByLayer
 62
  256
370
   -1
100
AcDbSpline
210
0
220
0
230
0
 70
    8
 71
    3
 72
    8
 73
    4
 74
    0
 42
1e-07
 43
1e-07
 40
0
 40
0
 40
0
 40
0
 40
1
 40
1
 40
1
 40
1
 10
202.152989152
 20
36.58880528000001
 30
0
 10
202.1399072
 20
34.76028672000001
 30
0
 10
202.038338464
 20
32.93107054400001
 30
0
 10
201.918754432
 20
31.09059244800001
 30
0
  0
SPLINE
  5
1E1
100
AcDbEntity
  8
Gravur
  6
ByLayer
 62
  256
370
   -1
100
AcDbSpline
210
0
220
0
230
0
 70
    8
 71
    3
 72
    8
 73
    4
 74
    0
 42
1e-07
 43
1e-07
 40
0
 40
0
 40
0
 40
0
 40
1
 40
1
 40
1
 40
1
 10
201.918754432
 20
31.09059244800001
 30
0
 10
199.175687728
 20
31.10058280000001
 30
0
 10
196.449367584
 20
31.03790497600001
 30
0
 10
193.733677824
 20
31.116861136
 30
0
  0
LINE
  5
1E2
100
AcDbEntity
  8
Gravur
  6
ByLayer
 62
  256
370
   -1
100
AcDbLine
 10
193.733677824
 20
31.116861136
 11
193.779999904
 21
35.62976452800001
  0
SPLINE
  5
1E3
100
AcDbEntity
  8
Gravur
  6
ByLayer
 62
  256
370
   -1
100
AcDbSpline
210
0
220
0
230
0
 70
    8
 71
    3
 72
    8
 73
    4
 74
    0
 42
1e-07
 43
1e-07
 40
0
 40
0
 40
0
 40
0
 40
1
 40
1
 40
1
 40
1
 10
193.779999904
 20
35.62976452800001
 30
0
 10
196.930986944
 20
35.68220656
 30
0
 10
199.675876512
 20
36.03058032000002
 30
0
 10
202.152989152
 20
36.58881283200002
 30
0
  0
LINE
  5
1E4
100
AcDbEntity
  8
Gravur
  6
ByLayer
 62
  256
370
   -1
100
AcDbLine
 10
202.152989152
 20
36.58881283200002
 11
202.152989152
 21
36.58880528000001
  0
SPLINE
  5
1E5
100
AcDbEntity
  8
Gravur
  6
ByLayer
 62
  256
370
   -1
100
AcDbSpline
210
0
220
0
230
0
 70
    8
 71
    3
 72
    8
 73
    4
 74
    0
 42
1e-07
 43
1e-07
 40
0
 40
0
 40
0
 40
0
 40
1
 40
1
 40
1
 40
1
 10
193.717157824
 20
29.517944144
 30
0
 10
196.445544384
 20
29.43814688000002
 30
0
 10
199.139861984
 20
29.49135544000001
 30
0
 10
201.812845184
 20
29.48137264000001
 30
0
  0
SPLINE
  5
1E6
100
AcDbEntity
  8
Gravur
  6
ByLayer
 62
  256
370
   -1
100
AcDbSpline
210
0
220
0
230
0
 70
    8
 71
    3
 72
    8
 73
    4
 74
    0
 42
1e-07
 43
1e-07
 40
0
 40
0
 40
0
 40
0
 40
1
 40
1
 40
1
 40
1
 10
201.812845184
 20
29.48137264000001
 30
0
 10
201.755921984
 20
28.63237680000001
 30
0
 10
201.699764368
 20
27.78060748800002
 30
0
 10
201.650892544
 20
26.92400961600002
 30
0
  0
SPLINE
  5
1E7
100
AcDbEntity
  8
Gravur
  6
ByLayer
 62
  256
370
   -1
100
AcDbSpline
210
0
220
0
230
0
 70
    8
 71
    3
 72
    8
 73
    4
 74
    0
 42
1e-07
 43
1e-07
 40
0
 40
0
 40
0
 40
0
 40
1
 40
1
 40
1
 40
1
 10
201.650892544
 20
26.92400961600002
 30
0
 10
199.216223088
 20
27.46740622400002
 30
0
 10
196.871855728
 20
27.73194334400002
 30
0
 10
193.699166128
 20
27.76741980800001
 30
0
  0
LINE
  5
1E8
100
AcDbEntity
  8
Gravur
  6
ByLayer
 62
  256
370
   -1
100
AcDbLine
 10
193.699166128
 20
27.76741980800001
 11
193.717149328
 21
29.517944144
  0
LINE
  5
1E9
100
AcDbEntity
  8
Gravur
  6
ByLayer
 62
  256
370
   -1
100
AcDbLine
 10
193.717149328
 20
29.517944144
 11
193.717157824
 21
29.517944144
  0
LINE
  5
1EA
100
AcDbEntity
  8
Gravur
  6
ByLayer
 62
  256
370
   -1
100
AcDbLine
 10
192.118559904
 20
29.51687836800001
 11
192.100550272
 21
27.76634553600001
  0
SPLINE
  5
1EB
100
AcDbEntity
  8
Gravur
  6
ByLayer
 62
  256
370
   -1
100
AcDbSpline
210
0
220
0
230
0
 70
    8
 71
    3
 72
    8
 73
    4
 74
    0
 42
1e-07
 43
1e-07
 40
0
 40
0
 40
0
 40
0
 40
1
 40
1
 40
1
 40
1
 10
192.100550272
 20
27.76634553600001
 30
0
 10
188.969254128
 20
27.72727243200001
 30
0
 10
186.643381616
 20
27.46284009600001
 30
0
 10
184.229658576
 20
26.92411628800001
 30
0
  0
SPLINE
  5
1EC
100
AcDbEntity
  8
Gravur
  6
ByLayer
 62
  256
370
   -1
100
AcDbSpline
210
0
220
0
230
0
 70
    8
 71
    3
 72
    8
 73
    4
 74
    0
 42
1e-07
 43
1e-07
 40
0
 40
0
 40
0
 40
0
 40
1
 40
1
 40
1
 40
1
 10
184.229658576
 20
26.92411628800001
 30
0
 10
184.180797136
 20
27.78071321600001
 30
0
 10
184.124638576
 20
28.63248347200002
 30
0
 10
184.067704992
 20
29.48147931200002
 30
0
  0
SPLINE
  5
1ED
100
AcDbEntity
  8
Gravur
  6
ByLayer
 62
  256
370
   -1
100
AcDbSpline
210
0
220
0
230
0
 70
    8
 71
    3
 72
    8
 73
    4
 74
    0
 42
1e-07
 43
1e-07
 40
0
 40
0
 40
0
 40
0
 40
1
 40
1
 40
1
 40
1
 10
184.067704992
 20
29.48147931200002
 30
0
 10
186.726038256
 20
29.49141680000001
 30
0
 10
189.405497296
 20
29.43897288000001
 30
0
 10
192.118552352
 20
29.51687836800001
 30
0
  0
LINE
  5
1EE
100
AcDbEntity
  8
Gravur
  6
ByLayer
 62
  256
370
   -1
100
AcDbLine
 10
192.118552352
 20
29.51687836800001
 11
192.118559904
 21
29.51687836800001
  0
SPLINE
  5
1EF
100
AcDbEntity
  8
Gravur
  6
ByLayer
 62
  256
370
   -1
100
AcDbSpline
210
0
220
0
230
0
 70
    8
 71
    3
 72
    8
 73
    4
 74
    0
 42
1e-07
 43
1e-07
 40
0
 40
0
 40
0
 40
0
 40
1
 40
1
 40
1
 40
1
 10
182.465868208
 20
29.46554459200001
 30
0
 10
182.531732032
 20
28.48892089600001
 30
0
 10
182.596810448
 20
27.51349419200001
 30
0
 10
182.650533488
 20
26.53825817600002
 30
0
  0
SPLINE
  5
1F0
100
AcDbEntity
  8
Gravur
  6
ByLayer
 62
  256
370
   -1
100
AcDbSpline
210
0
220
0
230
0
 70
    8
 71
    3
 72
    8
 73
    4
 74
    0
 42
1e-07
 43
1e-07
 40
0
 40
0
 40
0
 40
0
 40
1
 40
1
 40
1
 40
1
 10
182.650533488
 20
26.53825817600002
 30
0
 10
180.928893664
 20
26.08333419200001
 30
0
 10
179.037391424
 20
25.48119529600001
 30
0
 10
176.750239904
 20
24.73846459200002
 30
0
  0
SPLINE
  5
1F1
100
AcDbEntity
  8
Gravur
  6
ByLayer
 62
  256
370
   -1
100
AcDbSpline
210
0
220
0
230
0
 70
    8
 71
    3
 72
    8
 73
    4
 74
    0
 42
1e-07
 43
1e-07
 40
0
 40
0
 40
0
 40
0
 40
1
 40
1
 40
1
 40
1
 10
176.750239904
 20
24.73846459200002
 30
0
 10
176.434001792
 20
26.15070841600001
 30
0
 10
176.121281024
 20
27.57615785600001
 30
0
 10
175.855800848
 20
29.028651952
 30
0
  0
SPLINE
  5
1F2
100
AcDbEntity
  8
Gravur
  6
ByLayer
 62
  256
370
   -1
100
AcDbSpline
210
0
220
0
230
0
 70
    8
 71
    3
 72
    8
 73
    4
 74
    0
 42
1e-07
 43
1e-07
 40
0
 40
0
 40
0
 40
0
 40
1
 40
1
 40
1
 40
1
 10
175.855800848
 20
29.028651952
 30
0
 10
178.050486624
 20
29.32301947200002
 30
0
 10
180.251734144
 20
29.42918171200002
 30
0
 10
182.465868208
 20
29.46554459200001
 30
0
  0
LINE
  5
1F3
100
AcDbEntity
  8
Gravur
  6
ByLayer
 62
  256
370
   -1
100
AcDbLine
 10
182.465868208
 20
29.46554459200001
 11
182.465868208
 21
29.46554459200001
  0
SPLINE
  5
1F4
100
AcDbEntity
  8
Gravur
  6
ByLayer
 62
  256
370
   -1
100
AcDbSpline
210
0
220
0
230
0
 70
    8
 71
    3
 72
    8
 73
    4
 74
    0
 42
1e-07
 43
1e-07
 40
0
 40
0
 40
0
 40
0
 40
1
 40
1
 40
1
 40
1
 10
203.414700848
 20
29.46554459200001
 30
0
 10
205.628824528
 20
29.42918171200002
 30
0
 10
207.830072048
 20
29.32301947200002
 30
0
 10
210.024757824
 20
29.028651952
 30
0
  0
SPLINE
  5
1F5
100
AcDbEntity
  8
Gravur
  6
ByLayer
 62
  256
370
   -1
100
AcDbSpline
210
0
220
0
230
0
 70
    8
 71
    3
 72
    8
 73
    4
 74
    0
 42
1e-07
 43
1e-07
 40
0
 40
0
 40
0
 40
0
 40
1
 40
1
 40
1
 40
1
 10
210.024757824
 20
29.028651952
 30
0
 10
209.759277648
 20
27.57615785600001
 30
0
 10
209.446567264
 20
26.15070841600001
 30
0
 10
209.130318768
 20
24.73846459200002
 30
0
  0
SPLINE
  5
1F6
100
AcDbEntity
  8
Gravur
  6
ByLayer
 62
  256
370
   -1
100
AcDbSpline
210
0
220
0
230
0
 70
    8
 71
    3
 72
    8
 73
    4
 74
    0
 42
1e-07
 43
1e-07
 40
0
 40
0
 40
0
 40
0
 40
1
 40
1
 40
1
 40
1
 10
209.130318768
 20
24.73846459200002
 30
0
 10
206.843167248
 20
25.48119529600001
 30
0
 10
204.95167256
 20
26.08333419200001
 30
0
 10
203.230025184
 20
26.53825817600002
 30
0
  0
SPLINE
  5
1F7
100
AcDbEntity
  8
Gravur
  6
ByLayer
 62
  256
370
   -1
100
AcDbSpline
210
0
220
0
230
0
 70
    8
 71
    3
 72
    8
 73
    4
 74
    0
 42
1e-07
 43
1e-07
 40
0
 40
0
 40
0
 40
0
 40
1
 40
1
 40
1
 40
1
 10
203.230025184
 20
26.53825817600002
 30
0
 10
203.283748224
 20
27.51349419200001
 30
0
 10
203.348828528
 20
28.48892089600001
 30
0
 10
203.414700848
 20
29.46554459200001
 30
0
  0
LINE
  5
1F8
100
AcDbEntity
  8
Gravur
  6
ByLayer
 62
  256
370
   -1
100
AcDbLine
 10
203.414700848
 20
29.46554459200001
 11
203.414700848
 21
29.46554459200001
  0
SPLINE
  5
1F9
100
AcDbEntity
  8
Gravur
  6
ByLayer
 62
  256
370
   -1
100
AcDbSpline
210
0
220
0
230
0
 70
    8
 71
    3
 72
    8
 73
    4
 74
    0
 42
1e-07
 43
1e-07
 40
0
 40
0
 40
0
 40
0
 40
1
 40
1
 40
1
 40
1
 10
174.274600848
 20
28.78085100800002
 30
0
 10
174.558141632
 20
27.22591497600002
 30
0
 10
174.891893776
 20
25.71763048000001
 30
0
 10
175.223029152
 20
24.24197723200001
 30
0
  0
SPLINE
  5
1FA
100
AcDbEntity
  8
Gravur
  6
ByLayer
 62
  256
370
   -1
100
AcDbSpline
210
0
220
0
230
0
 70
    8
 71
    3
 72
    8
 73
    4
 74
    0
 42
1e-07
 43
1e-07
 40
0
 40
0
 40
0
 40
0
 40
1
 40
1
 40
1
 40
1
 10
175.223029152
 20
24.24197723200001
 30
0
 10
174.956262304
 20
24.15518587200002
 30
0
 10
174.728638416
 20
24.08133769600002
 30
0
 10
174.450119712
 20
23.99093176000001
 30
0
  0
SPLINE
  5
1FB
100
AcDbEntity
  8
Gravur
  6
ByLayer
 62
  256
370
   -1
100
AcDbSpline
210
0
220
0
230
0
 70
    8
 71
    3
 72
    8
 73
    4
 74
    0
 42
1e-07
 43
1e-07
 40
0
 40
0
 40
0
 40
0
 40
1
 40
1
 40
1
 40
1
 10
174.450119712
 20
23.99093176000001
 30
0
 10
174.092107712
 20
23.87472252800001
 30
0
 10
173.884578752
 20
23.93014571200001
 30
0
 10
173.511140848
 20
24.262330816
 30
0
  0
SPLINE
  5
1FC
100
AcDbEntity
  8
Gravur
  6
ByLayer
 62
  256
370
   -1
100
AcDbSpline
210
0
220
0
230
0
 70
    8
 71
    3
 72
    8
 73
    4
 74
    0
 42
1e-07
 43
1e-07
 40
0
 40
0
 40
0
 40
0
 40
1
 40
1
 40
1
 40
1
 10
173.511140848
 20
24.262330816
 30
0
 10
173.137702944
 20
24.59452441600002
 30
0
 10
172.712092992
 20
25.24449673600002
 30
0
 10
172.345885184
 20
26.10784987200001
 30
0
  0
SPLINE
  5
1FD
100
AcDbEntity
  8
Gravur
  6
ByLayer
 62
  256
370
   -1
100
AcDbSpline
210
0
220
0
230
0
 70
    8
 71
    3
 72
    8
 73
    4
 74
    0
 42
1e-07
 43
1e-07
 40
0
 40
0
 40
0
 40
0
 40
1
 40
1
 40
1
 40
1
 10
172.345885184
 20
26.10784987200001
 30
0
 10
172.087316032
 20
26.71746713600001
 30
0
 10
171.855375232
 20
27.43005497600002
 30
0
 10
171.654112544
 20
28.20501289600002
 30
0
  0
SPLINE
  5
1FE
100
AcDbEntity
  8
Gravur
  6
ByLayer
 62
  256
370
   -1
100
AcDbSpline
210
0
220
0
230
0
 70
    8
 71
    3
 72
    8
 73
    4
 74
    0
 42
1e-07
 43
1e-07
 40
0
 40
0
 40
0
 40
0
 40
1
 40
1
 40
1
 40
1
 10
171.654112544
 20
28.20501289600002
 30
0
 10
172.527182272
 20
28.43575481600002
 30
0
 10
173.400542752
 20
28.62520428800002
 30
0
 10
174.274600848
 20
28.78085100800002
 30
0
  0
LINE
  5
1FF
100
AcDbEntity
  8
Gravur
  6
ByLayer
 62
  256
370
   -1
100
AcDbLine
 10
174.274600848
 20
28.78085100800002
 11
174.274600848
 21
28.78085100800002
  0
SPLINE
  5
200
100
AcDbEntity
  8
Gravur
  6
ByLayer
 62
  256
370
   -1
100
AcDbSpline
210
0
220
0
230
0
 70
    8
 71
    3
 72
    8
 73
    4
 74
    0
 42
1e-07
 43
1e-07
 40
0
 40
0
 40
0
 40
0
 40
1
 40
1
 40
1
 40
1
 10
211.605957824
 20
28.78085100800002
 30
0
 10
212.480026304
 20
28.62520428800002
 30
0
 10
213.353386784
 20
28.43575481600002
 30
0
 10
214.226445184
 20
28.20501289600002
 30
0
  0
SPLINE
  5
201
100
AcDbEntity
  8
Gravur
  6
ByLayer
 62
  256
370
   -1
100
AcDbSpline
210
0
220
0
230
0
 70
    8
 71
    3
 72
    8
 73
    4
 74
    0
 42
1e-07
 43
1e-07
 40
0
 40
0
 40
0
 40
0
 40
1
 40
1
 40
1
 40
1
 10
214.226445184
 20
28.20501289600002
 30
0
 10
214.025193824
 20
27.43005497600002
 30
0
 10
213.793245472
 20
26.71746713600001
 30
0
 10
213.534673488
 20
26.10784987200001
 30
0
  0
SPLINE
  5
202
100
AcDbEntity
  8
Gravur
  6
ByLayer
 62
  256
370
   -1
100
AcDbSpline
210
0
220
0
230
0
 70
    8
 71
    3
 72
    8
 73
    4
 74
    0
 42
1e-07
 43
1e-07
 40
0
 40
0
 40
0
 40
0
 40
1
 40
1
 40
1
 40
1
 10
213.534673488
 20
26.10784987200001
 30
0
 10
213.16846568
 20
25.24449673600002
 30
0
 10
212.742855728
 20
24.59452441600002
 30
0
 10
212.369428208
 20
24.262330816
 30
0
  0
SPLINE
  5
203
100
AcDbEntity
  8
Gravur
  6
ByLayer
 62
  256
370
   -1
100
AcDbSpline
210
0
220
0
230
0
 70
    8
 71
    3
 72
    8
 73
    4
 74
    0
 42
1e-07
 43
1e-07
 40
0
 40
0
 40
0
 40
0
 40
1
 40
1
 40
1
 40
1
 10
212.369428208
 20
24.262330816
 30
0
 10
211.995990304
 20
23.93014571200001
 30
0
 10
211.78845096
 20
23.87472252800001
 30
0
 10
211.43043896
 20
23.99093176000001
 30
0
  0
SPLINE
  5
204
100
AcDbEntity
  8
Gravur
  6
ByLayer
 62
  256
370
   -1
100
AcDbSpline
210
0
220
0
230
0
 70
    8
 71
    3
 72
    8
 73
    4
 74
    0
 42
1e-07
 43
1e-07
 40
0
 40
0
 40
0
 40
0
 40
1
 40
1
 40
1
 40
1
 10
211.43043896
 20
23.99093176000001
 30
0
 10
211.151931584
 20
24.08133769600002
 30
0
 10
210.924295424
 20
24.15518587200002
 30
0
 10
210.657539904
 20
24.24197723200001
 30
0
  0
SPLINE
  5
205
100
AcDbEntity
  8
Gravur
  6
ByLayer
 62
  256
370
   -1
100
AcDbSpline
210
0
220
0
230
0
 70
    8
 71
    3
 72
    8
 73
    4
 74
    0
 42
1e-07
 43
1e-07
 40
0
 40
0
 40
0
 40
0
 40
1
 40
1
 40
1
 40
1
 10
210.657539904
 20
24.24197723200001
 30
0
 10
210.98867528
 20
25.71763048000001
 30
0
 10
211.32241704
 20
27.22591497600002
 30
0
 10
211.605957824
 20
28.78085100800002
 30
0
  0
LINE
  5
206
100
AcDbEntity
  8
Gravur
  6
ByLayer
 62
  256
370
   -1
100
AcDbLine
 10
211.605957824
 20
28.78085100800002
 11
211.605957824
 21
28.78085100800002
  0
SPLINE
  5
207
100
AcDbEntity
  8
Schublade
  6
ByLayer
 62
  256
370
   -1
100
AcDbSpline
210
0
220
0
230
0
 70
    8
 71
    3
 72
    8
 73
    4
 74
    0
 42
1e-07
 43
1e-07
 40
0
 40
0
 40
0
 40
0
 40
1
 40
1
 40
1
 40
1
 10
146.767921792
 20
68.555259296
 30
0
 10
130.521680848
 20
70.53766024000001
 30
0
 10
115.068402736
 20
76.72086024000001
 30
0
 10
101.94679896
 20
86.49126873599999
 30
0
  0
LINE
  5
208
100
AcDbEntity
  8
Schublade
  6
ByLayer
 62
  256
370
   -1
100
AcDbLine
 10
101.94679896
 20
86.49126873599999
 11
101.94679896
 21
86.49126873599999
  0
LINE
  5
209
100
AcDbEntity
  8
Schublade
  6
ByLayer
 62
  256
370
   -1
100
AcDbLine
 10
101.94679896
 20
86.49126873599999
 11
101.776878016
 21
86.557347792
  0
LINE
  5
20A
100
AcDbEntity
  8
Schublade
  6
ByLayer
 62
  256
370
   -1
100
AcDbLine
 10
101.776878016
 20
86.557347792
 11
92.78055990400001
 21
86.557347792
  0
LINE
  5
20B
100
AcDbEntity
  8
Schublade
  6
ByLayer
 62
  256
370
   -1
100
AcDbLine
 10
92.78055990400001
 20
86.557347792
 11
92.78055990400001
 21
77.56101929600001
  0
LINE
  5
20C
100
AcDbEntity
  8
Schublade
  6
ByLayer
 62
  256
370
   -1
100
AcDbLine
 10
92.78055990400001
 20
77.56101929600001
 11
95.78247801600001
 21
77.56101929600001
  0
LINE
  5
20D
100
AcDbEntity
  8
Schublade
  6
ByLayer
 62
  256
370
   -1
100
AcDbLine
 10
95.78247801600001
 20
77.56101929600001
 11
95.78247801600001
 21
65.56278024000001
  0
LINE
  5
20E
100
AcDbEntity
  8
Schublade
  6
ByLayer
 62
  256
370
   -1
100
AcDbLine
 10
95.78247801600001
 20
65.56278024000001
 11
92.78055990400001
 21
65.56278024000001
  0
LINE
  5
20F
100
AcDbEntity
  8
Schublade
  6
ByLayer
 62
  256
370
   -1
100
AcDbLine
 10
92.78055990400001
 20
65.56278024000001
 11
92.78055990400001
 21
56.58534023999999
  0
LINE
  5
210
100
AcDbEntity
  8
Schublade
  6
ByLayer
 62
  256
370
   -1
100
AcDbLine
 10
92.78055990400001
 20
56.58534023999999
 11
119.750641792
 21
56.58534023999999
  0
LINE
  5
211
100
AcDbEntity
  8
Schublade
  6
ByLayer
 62
  256
370
   -1
100
AcDbLine
 10
119.750641792
 20
56.58534023999999
 11
119.750641792
 21
53.583419296
  0
LINE
  5
212
100
AcDbEntity
  8
Schublade
  6
ByLayer
 62
  256
370
   -1
100
AcDbLine
 10
119.750641792
 20
53.583419296
 11
131.748880848
 21
53.583419296
  0
LINE
  5
213
100
AcDbEntity
  8
Schublade
  6
ByLayer
 62
  256
370
   -1
100
AcDbLine
 10
131.748880848
 20
53.583419296
 11
131.748880848
 21
56.58534023999999
  0
LINE
  5
214
100
AcDbEntity
  8
Schublade
  6
ByLayer
 62
  256
370
   -1
100
AcDbLine
 10
131.748880848
 20
56.58534023999999
 11
155.717041792
 21
56.58534023999999
  0
LINE
  5
215
100
AcDbEntity
  8
Schublade
  6
ByLayer
 62
  256
370
   -1
100
AcDbLine
 10
155.717041792
 20
56.58534023999999
 11
155.717041792
 21
62.57974023999999
  0
LINE
  5
216
100
AcDbEntity
  8
Schublade
  6
ByLayer
 62
  256
370
   -1
100
AcDbLine
 10
155.717041792
 20
62.57974023999999
 11
158.718959904
 21
62.57974023999999
  0
LINE
  5
217
100
AcDbEntity
  8
Schublade
  6
ByLayer
 62
  256
370
   -1
100
AcDbLine
 10
158.718959904
 20
62.57974023999999
 11
158.718959904
 21
68.555259296
  0
LINE
  5
218
100
AcDbEntity
  8
Schublade
  6
ByLayer
 62
  256
370
   -1
100
AcDbLine
 10
158.718959904
 20
68.555259296
 11
146.767921792
 21
68.57414779200001
  0
LINE
  5
219
100
AcDbEntity
  8
Schublade
  6
ByLayer
 62
  256
370
   -1
100
AcDbLine
 10
146.767921792
 20
68.57414779200001
 11
146.767921792
 21
68.555259296
  0
LINE
  5
21A
100
AcDbEntity
  8
Schublade
  6
ByLayer
 62
  256
370
   -1
100
AcDbLine
 10
146.767921792
 20
68.555259296
 11
146.767921792
 21
68.555259296
  0
SPLINE
  5
21B
100
AcDbEntity
  8
Schublade
  6
ByLayer
 62
  256
370
   -1
100
AcDbSpline
210
0
220
0
230
0
 70
    8
 71
    3
 72
    8
 73
    4
 74
    0
 42
1e-07
 43
1e-07
 40
0
 40
0
 40
0
 40
0
 40
1
 40
1
 40
1
 40
1
 10
239.533909712
 20
69.20045686400002
 30
0
 10
255.7801516
 20
71.18285497600002
 30
0
 10
271.242863104
 20
77.36605497600002
 30
0
 10
284.373903104
 20
87.136454976
 30
0
  0
LINE
  5
21C
100
AcDbEntity
  8
Schublade
  6
ByLayer
 62
  256
370
   -1
100
AcDbLine
 10
284.373903104
 20
87.136454976
 11
284.373903104
 21
87.136454976
  0
LINE
  5
21D
100
AcDbEntity
  8
Schublade
  6
ByLayer
 62
  256
370
   -1
100
AcDbLine
 10
284.373903104
 20
87.136454976
 11
284.524961984
 21
87.20253497600001
  0
LINE
  5
21E
100
AcDbEntity
  8
Schublade
  6
ByLayer
 62
  256
370
   -1
100
AcDbLine
 10
284.524961984
 20
87.20253497600001
 11
293.521250832
 21
87.20253497600001
  0
LINE
  5
21F
100
AcDbEntity
  8
Schublade
  6
ByLayer
 62
  256
370
   -1
100
AcDbLine
 10
293.521250832
 20
87.20253497600001
 11
293.521250832
 21
78.206216864
  0
LINE
  5
220
100
AcDbEntity
  8
Schublade
  6
ByLayer
 62
  256
370
   -1
100
AcDbLine
 10
293.521250832
 20
78.206216864
 11
290.519335552
 21
78.206216864
  0
LINE
  5
221
100
AcDbEntity
  8
Schublade
  6
ByLayer
 62
  256
370
   -1
100
AcDbLine
 10
290.519335552
 20
78.206216864
 11
290.519335552
 21
66.207974976
  0
LINE
  5
222
100
AcDbEntity
  8
Schublade
  6
ByLayer
 62
  256
370
   -1
100
AcDbLine
 10
290.519335552
 20
66.207974976
 11
293.521250832
 21
66.207974976
  0
LINE
  5
223
100
AcDbEntity
  8
Schublade
  6
ByLayer
 62
  256
370
   -1
100
AcDbLine
 10
293.521250832
 20
66.207974976
 11
293.521250832
 21
57.23053497600002
  0
LINE
  5
224
100
AcDbEntity
  8
Schublade
  6
ByLayer
 62
  256
370
   -1
100
AcDbLine
 10
293.521250832
 20
57.23053497600002
 11
266.551190656
 21
57.23053497600002
  0
LINE
  5
225
100
AcDbEntity
  8
Schublade
  6
ByLayer
 62
  256
370
   -1
100
AcDbLine
 10
266.551190656
 20
57.23053497600002
 11
266.551190656
 21
54.228616864
  0
LINE
  5
226
100
AcDbEntity
  8
Schublade
  6
ByLayer
 62
  256
370
   -1
100
AcDbLine
 10
266.551190656
 20
54.228616864
 11
254.552950656
 21
54.228616864
  0
LINE
  5
227
100
AcDbEntity
  8
Schublade
  6
ByLayer
 62
  256
370
   -1
100
AcDbLine
 10
254.552950656
 20
54.228616864
 11
254.552950656
 21
57.23053497600002
  0
LINE
  5
228
100
AcDbEntity
  8
Schublade
  6
ByLayer
 62
  256
370
   -1
100
AcDbLine
 10
254.552950656
 20
57.23053497600002
 11
230.584790656
 21
57.23053497600002
  0
LINE
  5
229
100
AcDbEntity
  8
Schublade
  6
ByLayer
 62
  256
370
   -1
100
AcDbLine
 10
230.584790656
 20
57.23053497600002
 11
230.584790656
 21
63.224934976
  0
LINE
  5
22A
100
AcDbEntity
  8
Schublade
  6
ByLayer
 62
  256
370
   -1
100
AcDbLine
 10
230.584790656
 20
63.224934976
 11
227.5828716
 21
63.224934976
  0
LINE
  5
22B
100
AcDbEntity
  8
Schublade
  6
ByLayer
 62
  256
370
   -1
100
AcDbLine
 10
227.5828716
 20
63.224934976
 11
227.5828716
 21
69.20045686400002
  0
LINE
  5
22C
100
AcDbEntity
  8
Schublade
  6
ByLayer
 62
  256
370
   -1
100
AcDbLine
 10
227.5828716
 20
69.20045686400002
 11
239.533909712
 21
69.21934536000001
  0
LINE
  5
22D
100
AcDbEntity
  8
Schublade
  6
ByLayer
 62
  256
370
   -1
100
AcDbLine
 10
239.533909712
 20
69.21934536000001
 11
239.533909712
 21
69.20045686400002
  0
LINE
  5
22E
100
AcDbEntity
  8
Schublade
  6
ByLayer
 62
  256
370
   -1
100
AcDbLine
 10
239.533909712
 20
69.20045686400002
 11
239.533909712
 21
69.20045686400002
  0
LINE
  5
22F
100
AcDbEntity
  8
Schublade
  6
ByLayer
 62
  256
370
   -1
100
AcDbLine
 10
150.491954592
 20
43.64548195200001
 11
129.525714592
 21
43.64548195200001
  0
LINE
  5
230
100
AcDbEntity
  8
Schublade
  6
ByLayer
 62
  256
370
   -1
100
AcDbLine
 10
129.525714592
 20
43.64548195200001
 11
129.525714592
 21
49.639881952
  0
LINE
  5
231
100
AcDbEntity
  8
Schublade
  6
ByLayer
 62
  256
370
   -1
100
AcDbLine
 10
129.525714592
 20
49.639881952
 11
117.527475536
 21
49.639881952
  0
LINE
  5
232
100
AcDbEntity
  8
Schublade
  6
ByLayer
 62
  256
370
   -1
100
AcDbLine
 10
117.527475536
 20
49.639881952
 11
117.527475536
 21
43.64548195200001
  0
LINE
  5
233
100
AcDbEntity
  8
Schublade
  6
ByLayer
 62
  256
370
   -1
100
AcDbLine
 10
117.527475536
 20
43.64548195200001
 11
96.55179648000001
 21
43.64548195200001
  0
LINE
  5
234
100
AcDbEntity
  8
Schublade
  6
ByLayer
 62
  256
370
   -1
100
AcDbLine
 10
159.873012784
 20
15.02608944000001
 11
159.873012784
 21
12.02608944000001
  0
LINE
  5
235
100
AcDbEntity
  8
Schublade
  6
ByLayer
 62
  256
370
   -1
100
AcDbLine
 10
159.873012784
 20
12.02608944000001
 11
165.873012784
 21
12.02608944000001
  0
LINE
  5
236
100
AcDbEntity
  8
Schublade
  6
ByLayer
 62
  256
370
   -1
100
AcDbLine
 10
165.873012784
 20
12.02608944000001
 11
219.873012784
 21
12.02608944000001
  0
SPLINE
  5
237
100
AcDbEntity
  8
Schublade
  6
ByLayer
 62
  256
370
   -1
100
AcDbSpline
210
0
220
0
230
0
 70
    8
 71
    3
 72
    8
 73
    4
 74
    0
 42
1e-07
 43
1e-07
 40
0
 40
0
 40
0
 40
0
 40
1
 40
1
 40
1
 40
1
 10
193.0168896
 20
55.417928496
 30
0
 10
185.804728656
 20
55.417928496
 30
0
 10
178.658628832
 20
53.916967552
 30
0
 10
172.041173728
 20
51.000007552
 30
0
  0
LINE
  5
238
100
AcDbEntity
  8
Schublade
  6
ByLayer
 62
  256
370
   -1
100
AcDbLine
 10
172.041173728
 20
51.000007552
 11
159.873012784
 21
51.000007552
  0
LINE
  5
239
100
AcDbEntity
  8
Schublade
  6
ByLayer
 62
  256
370
   -1
100
AcDbLine
 10
226.2
 20
51
 11
214.031839056
 21
51
  0
SPLINE
  5
23A
100
AcDbEntity
  8
Schublade
  6
ByLayer
 62
  256
370
   -1
100
AcDbSpline
210
0
220
0
230
0
 70
    8
 71
    3
 72
    8
 73
    4
 74
    0
 42
1e-07
 43
1e-07
 40
0
 40
0
 40
0
 40
0
 40
1
 40
1
 40
1
 40
1
 10
214.031839056
 20
51
 30
0
 10
207.4144
 20
53.916957168
 30
0
 10
200.268320944
 20
55.417918112
 30
0
 10
193.05616
 20
55.417918112
 30
0
  0
LINE
  5
23B
100
AcDbEntity
  8
Schublade
  6
ByLayer
 62
  256
370
   -1
100
AcDbLine
 10
159.873012784
 20
51.000007552
 11
159.873012784
 21
15.02608944000001
  0
LINE
  5
23C
100
AcDbEntity
  8
Schublade
  6
ByLayer
 62
  256
370
   -1
100
AcDbLine
 10
219.873012784
 20
12.02608944000001
 11
226.2
 21
12.02608944000001
  0
LINE
  5
23D
100
AcDbEntity
  8
Schublade
  6
ByLayer
 62
  256
370
   -1
100
AcDbLine
 10
226.2
 20
51
 11
226.2
 21
12.02608944000001
  0
LINE
  5
23E
100
AcDbEntity
  8
Schublade
  6
ByLayer
 62
  256
370
   -1
100
AcDbLine
 10
186.994558112
 20
18.02800283200001
 11
186.994558112
 21
15.02608188800001
  0
LINE
  5
23F
100
AcDbEntity
  8
Schublade
  6
ByLayer
 62
  256
370
   -1
100
AcDbLine
 10
198.973918112
 20
15.02608188800001
 11
198.973918112
 21
18.02800283200001
  0
LINE
  5
240
100
AcDbEntity
  8
Schublade
  6
ByLayer
 62
  256
370
   -1
100
AcDbLine
 10
163.2
 20
39.00368188800002
 11
163.2
 21
48
  0
LINE
  5
241
100
AcDbEntity
  8
Schublade
  6
ByLayer
 62
  256
370
   -1
100
AcDbLine
 10
163.2
 20
27.00544283199999
 11
166.201918112
 21
27.00544283199999
  0
LINE
  5
242
100
AcDbEntity
  8
Schublade
  6
ByLayer
 62
  256
370
   -1
100
AcDbLine
 10
166.201918112
 20
47.99999999999999
 11
166.201918112
 21
39.00368188800001
  0
LINE
  5
243
100
AcDbEntity
  8
Schublade
  6
ByLayer
 62
  256
370
   -1
100
AcDbLine
 10
166.201918112
 20
39.00368188800001
 11
163.2
 21
39.00368188800001
  0
LINE
  5
244
100
AcDbEntity
  8
Schublade
  6
ByLayer
 62
  256
370
   -1
100
AcDbLine
 10
163.2056
 20
47.99999999999999
 11
166.201918112
 21
47.99999999999999
  0
LINE
  5
245
100
AcDbEntity
  8
Schublade
  6
ByLayer
 62
  256
370
   -1
100
AcDbLine
 10
219.860958112
 20
27.005442832
 11
222.843998112
 21
27.005442832
  0
LINE
  5
246
100
AcDbEntity
  8
Schublade
  6
ByLayer
 62
  256
370
   -1
100
AcDbLine
 10
222.843998112
 20
39.00368188800002
 11
219.860958112
 21
39.00368188800002
  0
LINE
  5
247
100
AcDbEntity
  8
Schublade
  6
ByLayer
 62
  256
370
   -1
100
AcDbLine
 10
219.860958112
 20
39.00368188800002
 11
219.860958112
 21
48
  0
LINE
  5
248
100
AcDbEntity
  8
Schublade
  6
ByLayer
 62
  256
370
   -1
100
AcDbLine
 10
219.860958112
 20
48
 11
222.9
 21
48
  0
LINE
  5
249
100
AcDbEntity
  8
Schublade
  6
ByLayer
 62
  256
370
   -1
100
AcDbLine
 10
222.843998112
 20
39.00368188800002
 11
222.9
 21
48
  0
LINE
  5
24A
100
AcDbEntity
  8
Schublade
  6
ByLayer
 62
  256
370
   -1
100
AcDbLine
 10
163.2
 20
15.02608188799425
 11
187.0056
 21
15.02608188800001
  0
LINE
  5
24B
100
AcDbEntity
  8
Schublade
  6
ByLayer
 62
  256
370
   -1
100
AcDbLine
 10
163.2
 20
15.02608188799425
 11
163.2
 21
27.00544283199999
  0
LINE
  5
24C
100
AcDbEntity
  8
Schublade
  6
ByLayer
 62
  256
370
   -1
100
AcDbLine
 10
166.201918112
 20
18.02800283200001
 11
186.994558112
 21
18.02800283200001
  0
LINE
  5
24D
100
AcDbEntity
  8
Schublade
  6
ByLayer
 62
  256
370
   -1
100
AcDbLine
 10
166.201918112
 20
27.00544283199999
 11
166.201918112
 21
18.02800283200001
  0
LINE
  5
24E
100
AcDbEntity
  8
Schublade
  6
ByLayer
 62
  256
370
   -1
100
AcDbLine
 10
198.973918112
 20
18.02800283200001
 11
219.860958112
 21
18.02800283200001
  0
LINE
  5
24F
100
AcDbEntity
  8
Schublade
  6
ByLayer
 62
  256
370
   -1
100
AcDbLine
 10
219.860958112
 20
18.02800283200001
 11
219.860958112
 21
27.005442832
  0
LINE
  5
250
100
AcDbEntity
  8
Schublade
  6
ByLayer
 62
  256
370
   -1
100
AcDbLine
 10
199.0056
 20
15.02608188800001
 11
222.843998112
 21
15.02608188800001
  0
LINE
  5
251
100
AcDbEntity
  8
Schublade
  6
ByLayer
 62
  256
370
   -1
100
AcDbLine
 10
222.843998112
 20
27.005442832
 11
222.843998112
 21
15.02608188800001
  0
LINE
  5
252
100
AcDbEntity
  8
Schublade
  6
ByLayer
 62
  256
370
   -1
100
AcDbLine
 10
117.527475536
 20
43.64548195200001
 11
93.73147553599999
 21
43.64548195200001
  0
LINE
  5
253
100
AcDbEntity
  8
Schublade
  6
ByLayer
 62
  256
370
   -1
100
AcDbLine
 10
129.525475536
 20
43.64548195200001
 11
153.321475536
 21
43.64548195200001
  0
LINE
  5
254
100
AcDbEntity
  8
Schublade
  6
ByLayer
 62
  256
370
   -1
100
AcDbLine
 10
93.73147553599999
 20
43.64548195200001
 11
93.73147553599999
 21
37.64164289599999
  0
LINE
  5
255
100
AcDbEntity
  8
Schublade
  6
ByLayer
 62
  256
370
   -1
100
AcDbLine
 10
93.73147553599999
 20
37.64164289599999
 11
96.73339364799999
 21
37.64164289599999
  0
LINE
  5
256
100
AcDbEntity
  8
Schublade
  6
ByLayer
 62
  256
370
   -1
100
AcDbLine
 10
96.73339364799999
 20
37.64164289599999
 11
96.73339364799999
 21
31.64724289600001
  0
LINE
  5
257
100
AcDbEntity
  8
Schublade
  6
ByLayer
 62
  256
370
   -1
100
AcDbLine
 10
153.321475536
 20
37.64164289599999
 11
153.321475536
 21
43.64548195200001
  0
LINE
  5
258
100
AcDbEntity
  8
Schublade
  6
ByLayer
 62
  256
370
   -1
100
AcDbLine
 10
150.32899648
 20
31.64724289600001
 11
150.32899648
 21
37.64164289599999
  0
LINE
  5
259
100
AcDbEntity
  8
Schublade
  6
ByLayer
 62
  256
370
   -1
100
AcDbLine
 10
150.32899648
 20
37.64164289599999
 11
153.321475536
 21
37.64164289599999
  0
LINE
  5
25A
100
AcDbEntity
  8
Schublade
  6
ByLayer
 62
  256
370
   -1
100
AcDbLine
 10
96.73339364799999
 20
31.64724289600001
 11
150.32899648
 21
31.64724289600001
  0
LINE
  5
25B
100
AcDbEntity
  8
Schublade
  6
ByLayer
 62
  256
370
   -1
100
AcDbLine
 10
86.94016094399998
 20
84
 11
65.964479056
 21
84
  0
LINE
  5
25C
100
AcDbEntity
  8
Schublade
  6
ByLayer
 62
  256
370
   -1
100
AcDbLine
 10
65.964479056
 20
84
 11
65.964479056
 21
80.99807905599999
  0
LINE
  5
25D
100
AcDbEntity
  8
Schublade
  6
ByLayer
 62
  256
370
   -1
100
AcDbLine
 10
65.964479056
 20
80.99807905599999
 11
53.96623999999999
 21
80.99807905599999
  0
LINE
  5
25E
100
AcDbEntity
  8
Schublade
  6
ByLayer
 62
  256
370
   -1
100
AcDbLine
 10
53.96623999999999
 20
80.99807905599999
 11
53.96623999999999
 21
84
  0
LINE
  5
25F
100
AcDbEntity
  8
Schublade
  6
ByLayer
 62
  256
370
   -1
100
AcDbLine
 10
53.96623999999999
 20
84
 11
33
 21
84
  0
LINE
  5
260
100
AcDbEntity
  8
Schublade
  6
ByLayer
 62
  256
370
   -1
100
AcDbLine
 10
32.99999999999999
 20
18.06160283200001
 11
53.96623999999998
 21
18.06160283200001
  0
LINE
  5
261
100
AcDbEntity
  8
Schublade
  6
ByLayer
 62
  256
370
   -1
100
AcDbLine
 10
53.96623999999998
 20
18.06160283200001
 11
53.96623999999998
 21
21.063520944
  0
LINE
  5
262
100
AcDbEntity
  8
Schublade
  6
ByLayer
 62
  256
370
   -1
100
AcDbLine
 10
53.96623999999998
 20
21.063520944
 11
65.96447905599999
 21
21.063520944
  0
LINE
  5
263
100
AcDbEntity
  8
Schublade
  6
ByLayer
 62
  256
370
   -1
100
AcDbLine
 10
65.96447905599999
 20
21.063520944
 11
65.96447905599999
 21
18.06160283200001
  0
LINE
  5
264
100
AcDbEntity
  8
Schublade
  6
ByLayer
 62
  256
370
   -1
100
AcDbLine
 10
65.96447905599999
 20
18.06160283200001
 11
86.94016094399998
 21
18.06160283199999
  0
LINE
  5
265
100
AcDbEntity
  8
Schublade
  6
ByLayer
 62
  256
370
   -1
100
AcDbLine
 10
53.966
 20
18.06
 11
30.17
 21
18.06
  0
LINE
  5
266
100
AcDbEntity
  8
Schublade
  6
ByLayer
 62
  256
370
   -1
100
AcDbLine
 10
65.964
 20
18.06
 11
89.75999999999999
 21
18.06
  0
LINE
  5
267
100
AcDbEntity
  8
Schublade
  6
ByLayer
 62
  256
370
   -1
100
AcDbLine
 10
53.96623999999999
 20
84
 11
30.17023999999999
 21
84
  0
LINE
  5
268
100
AcDbEntity
  8
Schublade
  6
ByLayer
 62
  256
370
   -1
100
AcDbLine
 10
65.96423999999999
 20
84
 11
89.76023999999998
 21
84
  0
LINE
  5
269
100
AcDbEntity
  8
Schublade
  6
ByLayer
 62
  256
370
   -1
100
AcDbLine
 10
30.17000000000001
 20
83.998397168
 11
30.17000000000001
 21
57.02831811200001
  0
LINE
  5
26A
100
AcDbEntity
  8
Schublade
  6
ByLayer
 62
  256
370
   -1
100
AcDbLine
 10
30.17000000000001
 20
57.02831811200001
 11
33.162481888
 21
57.02831811200001
  0
LINE
  5
26B
100
AcDbEntity
  8
Schublade
  6
ByLayer
 62
  256
370
   -1
100
AcDbLine
 10
33.162481888
 20
57.02831811200001
 11
33.162481888
 21
45.03007905600001
  0
LINE
  5
26C
100
AcDbEntity
  8
Schublade
  6
ByLayer
 62
  256
370
   -1
100
AcDbLine
 10
33.162481888
 20
45.03007905600001
 11
30.17
 21
45.03007905600001
  0
LINE
  5
26D
100
AcDbEntity
  8
Schublade
  6
ByLayer
 62
  256
370
   -1
100
AcDbLine
 10
30.17
 20
45.03007905600001
 11
30.17
 21
18.06
  0
LINE
  5
26E
100
AcDbEntity
  8
Schublade
  6
ByLayer
 62
  256
370
   -1
100
AcDbLine
 10
89.75999999999999
 20
45.03007905600001
 11
86.75807905600001
 21
45.03007905600001
  0
LINE
  5
26F
100
AcDbEntity
  8
Schublade
  6
ByLayer
 62
  256
370
   -1
100
AcDbLine
 10
86.75807905600001
 20
45.03007905600001
 11
86.75807905600001
 21
57.02831811200001
  0
LINE
  5
270
100
AcDbEntity
  8
Schublade
  6
ByLayer
 62
  256
370
   -1
100
AcDbLine
 10
86.75807905600001
 20
57.02831811200001
 11
89.75999999999999
 21
57.02831811200001
  0
LINE
  5
271
100
AcDbEntity
  8
Schublade
  6
ByLayer
 62
  256
370
   -1
100
AcDbLine
 10
89.75999999999999
 20
57.02831811200001
 11
89.75999999999999
 21
83.99839716800001
  0
LINE
  5
272
100
AcDbEntity
  8
Schublade
  6
ByLayer
 62
  256
370
   -1
100
AcDbLine
 10
89.75999999999999
 20
18.06
 11
89.75999999999999
 21
45.03007905600001
  0
SPLINE
  5
273
100
AcDbEntity
  8
Korpus
  6
ByLayer
 62
  256
370
   -1
100
AcDbSpline
210
0
220
0
230
0
 70
    8
 71
    3
 72
    8
 73
    4
 74
    0
 42
1e-07
 43
1e-07
 40
0
 40
0
 40
0
 40
0
 40
1
 40
1
 40
1
 40
1
 10
149.365855104
 20
232.095801696
 30
0
 10
143.711295104
 20
224.524921696
 30
0
 10
134.82825416
 20
220.07868264
 30
0
 10
125.36937416
 20
220.07868264
 30
0
  0
LINE
  5
274
100
AcDbEntity
  8
Korpus
  6
ByLayer
 62
  256
370
   -1
100
AcDbLine
 10
125.36937416
 20
220.07868264
 11
125.36937416
 21
220.07868264
  0
SPLINE
  5
275
100
AcDbEntity
  8
Korpus
  6
ByLayer
 62
  256
370
   -1
100
AcDbSpline
210
0
220
0
230
0
 70
    8
 71
    3
 72
    8
 73
    4
 74
    0
 42
1e-07
 43
1e-07
 40
0
 40
0
 40
0
 40
0
 40
1
 40
1
 40
1
 40
1
 10
125.36937416
 20
220.07868264
 30
0
 10
115.92937416
 20
220.07868264
 30
0
 10
107.04633416
 20
224.524921696
 30
0
 10
101.401216048
 20
232.095801696
 30
0
  0
LINE
  5
276
100
AcDbEntity
  8
Korpus
  6
ByLayer
 62
  256
370
   -1
100
AcDbLine
 10
101.401216048
 20
232.095801696
 11
95.425696992
 21
232.095801696
  0
LINE
  5
277
100
AcDbEntity
  8
Korpus
  6
ByLayer
 62
  256
370
   -1
100
AcDbLine
 10
95.425696992
 20
232.095801696
 11
95.425696992
 21
220.09756264
  0
LINE
  5
278
100
AcDbEntity
  8
Korpus
  6
ByLayer
 62
  256
370
   -1
100
AcDbLine
 10
95.425696992
 20
220.09756264
 11
92.42377604800001
 21
220.09756264
  0
LINE
  5
279
100
AcDbEntity
  8
Korpus
  6
ByLayer
 62
  256
370
   -1
100
AcDbLine
 10
92.42377604800001
 20
220.09756264
 11
92.42377604800001
 21
208.11820264
  0
LINE
  5
27A
100
AcDbEntity
  8
Korpus
  6
ByLayer
 62
  256
370
   -1
100
AcDbLine
 10
92.42377604800001
 20
208.11820264
 11
95.425696992
 21
208.11820264
  0
LINE
  5
27B
100
AcDbEntity
  8
Korpus
  6
ByLayer
 62
  256
370
   -1
100
AcDbLine
 10
95.425696992
 20
208.11820264
 11
95.425696992
 21
196.11996264
  0
LINE
  5
27C
100
AcDbEntity
  8
Korpus
  6
ByLayer
 62
  256
370
   -1
100
AcDbLine
 10
95.425696992
 20
196.11996264
 11
92.42377604800001
 21
196.11996264
  0
LINE
  5
27D
100
AcDbEntity
  8
Korpus
  6
ByLayer
 62
  256
370
   -1
100
AcDbLine
 10
92.42377604800001
 20
196.11996264
 11
92.42377604800001
 21
184.140603584
  0
LINE
  5
27E
100
AcDbEntity
  8
Korpus
  6
ByLayer
 62
  256
370
   -1
100
AcDbLine
 10
92.42377604800001
 20
184.140603584
 11
95.425696992
 21
184.140603584
  0
LINE
  5
27F
100
AcDbEntity
  8
Korpus
  6
ByLayer
 62
  256
370
   -1
100
AcDbLine
 10
95.425696992
 20
184.140603584
 11
95.425696992
 21
172.14236264
  0
LINE
  5
280
100
AcDbEntity
  8
Korpus
  6
ByLayer
 62
  256
370
   -1
100
AcDbLine
 10
95.425696992
 20
172.14236264
 11
92.42377604800001
 21
172.14236264
  0
LINE
  5
281
100
AcDbEntity
  8
Korpus
  6
ByLayer
 62
  256
370
   -1
100
AcDbLine
 10
92.42377604800001
 20
172.14236264
 11
92.42377604800001
 21
160.14412264
  0
LINE
  5
282
100
AcDbEntity
  8
Korpus
  6
ByLayer
 62
  256
370
   -1
100
AcDbLine
 10
92.42377604800001
 20
160.14412264
 11
95.425696992
 21
160.14412264
  0
LINE
  5
283
100
AcDbEntity
  8
Korpus
  6
ByLayer
 62
  256
370
   -1
100
AcDbLine
 10
95.425696992
 20
160.14412264
 11
95.425696992
 21
148.164764528
  0
LINE
  5
284
100
AcDbEntity
  8
Korpus
  6
ByLayer
 62
  256
370
   -1
100
AcDbLine
 10
95.425696992
 20
148.164764528
 11
92.42377604800001
 21
148.164764528
  0
LINE
  5
285
100
AcDbEntity
  8
Korpus
  6
ByLayer
 62
  256
370
   -1
100
AcDbLine
 10
92.42377604800001
 20
148.164764528
 11
92.42377604800001
 21
136.16652264
  0
LINE
  5
286
100
AcDbEntity
  8
Korpus
  6
ByLayer
 62
  256
370
   -1
100
AcDbLine
 10
92.42377604800001
 20
136.16652264
 11
95.425696992
 21
136.16652264
  0
LINE
  5
287
100
AcDbEntity
  8
Korpus
  6
ByLayer
 62
  256
370
   -1
100
AcDbLine
 10
95.425696992
 20
136.16652264
 11
95.425696992
 21
124.168283584
  0
LINE
  5
288
100
AcDbEntity
  8
Korpus
  6
ByLayer
 62
  256
370
   -1
100
AcDbLine
 10
95.425696992
 20
124.168283584
 11
92.42377604800001
 21
124.168283584
  0
LINE
  5
289
100
AcDbEntity
  8
Korpus
  6
ByLayer
 62
  256
370
   -1
100
AcDbLine
 10
92.42377604800001
 20
124.168283584
 11
92.42377604800001
 21
88.220764528
  0
LINE
  5
28A
100
AcDbEntity
  8
Korpus
  6
ByLayer
 62
  256
370
   -1
100
AcDbLine
 10
92.42377604800001
 20
88.220764528
 11
119.393855104
 21
88.220764528
  0
LINE
  5
28B
100
AcDbEntity
  8
Korpus
  6
ByLayer
 62
  256
370
   -1
100
AcDbLine
 10
119.393855104
 20
88.220764528
 11
119.393855104
 21
85.21884641600001
  0
LINE
  5
28C
100
AcDbEntity
  8
Korpus
  6
ByLayer
 62
  256
370
   -1
100
AcDbLine
 10
119.393855104
 20
85.21884641600001
 11
131.39209416
 21
85.21884641600001
  0
LINE
  5
28D
100
AcDbEntity
  8
Korpus
  6
ByLayer
 62
  256
370
   -1
100
AcDbLine
 10
131.39209416
 20
85.21884641600001
 11
131.39209416
 21
88.220764528
  0
LINE
  5
28E
100
AcDbEntity
  8
Korpus
  6
ByLayer
 62
  256
370
   -1
100
AcDbLine
 10
131.39209416
 20
88.220764528
 11
155.360255104
 21
88.220764528
  0
LINE
  5
28F
100
AcDbEntity
  8
Korpus
  6
ByLayer
 62
  256
370
   -1
100
AcDbLine
 10
155.360255104
 20
88.220764528
 11
155.360255104
 21
100.200125472
  0
LINE
  5
290
100
AcDbEntity
  8
Korpus
  6
ByLayer
 62
  256
370
   -1
100
AcDbLine
 10
155.360255104
 20
100.200125472
 11
158.362173216
 21
100.200125472
  0
LINE
  5
291
100
AcDbEntity
  8
Korpus
  6
ByLayer
 62
  256
370
   -1
100
AcDbLine
 10
158.362173216
 20
100.200125472
 11
158.362173216
 21
112.198364528
  0
LINE
  5
292
100
AcDbEntity
  8
Korpus
  6
ByLayer
 62
  256
370
   -1
100
AcDbLine
 10
158.362173216
 20
112.198364528
 11
155.360255104
 21
112.198364528
  0
LINE
  5
293
100
AcDbEntity
  8
Korpus
  6
ByLayer
 62
  256
370
   -1
100
AcDbLine
 10
155.360255104
 20
112.198364528
 11
155.360255104
 21
124.177725472
  0
LINE
  5
294
100
AcDbEntity
  8
Korpus
  6
ByLayer
 62
  256
370
   -1
100
AcDbLine
 10
155.360255104
 20
124.177725472
 11
158.362173216
 21
124.177725472
  0
LINE
  5
295
100
AcDbEntity
  8
Korpus
  6
ByLayer
 62
  256
370
   -1
100
AcDbLine
 10
158.362173216
 20
124.177725472
 11
158.362173216
 21
136.175964528
  0
LINE
  5
296
100
AcDbEntity
  8
Korpus
  6
ByLayer
 62
  256
370
   -1
100
AcDbLine
 10
158.362173216
 20
136.175964528
 11
155.360255104
 21
136.175964528
  0
LINE
  5
297
100
AcDbEntity
  8
Korpus
  6
ByLayer
 62
  256
370
   -1
100
AcDbLine
 10
155.360255104
 20
136.175964528
 11
155.360255104
 21
148.00428264
  0
LINE
  5
298
100
AcDbEntity
  8
Korpus
  6
ByLayer
 62
  256
370
   -1
100
AcDbLine
 10
155.360255104
 20
148.00428264
 11
158.362173216
 21
148.00428264
  0
LINE
  5
299
100
AcDbEntity
  8
Korpus
  6
ByLayer
 62
  256
370
   -1
100
AcDbLine
 10
158.362173216
 20
148.00428264
 11
158.362173216
 21
160.153564528
  0
LINE
  5
29A
100
AcDbEntity
  8
Korpus
  6
ByLayer
 62
  256
370
   -1
100
AcDbLine
 10
158.362173216
 20
160.153564528
 11
155.360255104
 21
160.153564528
  0
LINE
  5
29B
100
AcDbEntity
  8
Korpus
  6
ByLayer
 62
  256
370
   -1
100
AcDbLine
 10
155.360255104
 20
160.153564528
 11
155.360255104
 21
172.151804528
  0
LINE
  5
29C
100
AcDbEntity
  8
Korpus
  6
ByLayer
 62
  256
370
   -1
100
AcDbLine
 10
155.360255104
 20
172.151804528
 11
158.362173216
 21
172.151804528
  0
LINE
  5
29D
100
AcDbEntity
  8
Korpus
  6
ByLayer
 62
  256
370
   -1
100
AcDbLine
 10
158.362173216
 20
172.151804528
 11
158.362173216
 21
184.150043584
  0
LINE
  5
29E
100
AcDbEntity
  8
Korpus
  6
ByLayer
 62
  256
370
   -1
100
AcDbLine
 10
158.362173216
 20
184.150043584
 11
155.360255104
 21
184.150043584
  0
LINE
  5
29F
100
AcDbEntity
  8
Korpus
  6
ByLayer
 62
  256
370
   -1
100
AcDbLine
 10
155.360255104
 20
184.150043584
 11
155.360255104
 21
196.12940264
  0
LINE
  5
2A0
100
AcDbEntity
  8
Korpus
  6
ByLayer
 62
  256
370
   -1
100
AcDbLine
 10
155.360255104
 20
196.12940264
 11
158.362173216
 21
196.12940264
  0
LINE
  5
2A1
100
AcDbEntity
  8
Korpus
  6
ByLayer
 62
  256
370
   -1
100
AcDbLine
 10
158.362173216
 20
196.12940264
 11
158.362173216
 21
208.12764264
  0
LINE
  5
2A2
100
AcDbEntity
  8
Korpus
  6
ByLayer
 62
  256
370
   -1
100
AcDbLine
 10
158.362173216
 20
208.12764264
 11
155.360255104
 21
208.12764264
  0
LINE
  5
2A3
100
AcDbEntity
  8
Korpus
  6
ByLayer
 62
  256
370
   -1
100
AcDbLine
 10
155.360255104
 20
208.12764264
 11
155.360255104
 21
220.10700264
  0
LINE
  5
2A4
100
AcDbEntity
  8
Korpus
  6
ByLayer
 62
  256
370
   -1
100
AcDbLine
 10
155.360255104
 20
220.10700264
 11
158.362173216
 21
220.10700264
  0
LINE
  5
2A5
100
AcDbEntity
  8
Korpus
  6
ByLayer
 62
  256
370
   -1
100
AcDbLine
 10
158.362173216
 20
220.10700264
 11
158.362173216
 21
232.105243584
  0
LINE
  5
2A6
100
AcDbEntity
  8
Korpus
  6
ByLayer
 62
  256
370
   -1
100
AcDbLine
 10
158.362173216
 20
232.105243584
 11
149.365855104
 21
232.105243584
  0
LINE
  5
2A7
100
AcDbEntity
  8
Korpus
  6
ByLayer
 62
  256
370
   -1
100
AcDbLine
 10
149.365855104
 20
232.105243584
 11
149.365855104
 21
232.095801696
  0
LINE
  5
2A8
100
AcDbEntity
  8
Korpus
  6
ByLayer
 62
  256
370
   -1
100
AcDbLine
 10
124.104419824
 20
162.589084528
 11
100.74985888
 21
176.088284528
  0
LINE
  5
2A9
100
AcDbEntity
  8
Korpus
  6
ByLayer
 62
  256
370
   -1
100
AcDbLine
 10
100.74985888
 20
176.088284528
 11
102.25081888
 21
178.684284528
  0
LINE
  5
2AA
100
AcDbEntity
  8
Korpus
  6
ByLayer
 62
  256
370
   -1
100
AcDbLine
 10
102.25081888
 20
178.684284528
 11
125.605376992
 21
165.185085472
  0
LINE
  5
2AB
100
AcDbEntity
  8
Korpus
  6
ByLayer
 62
  256
370
   -1
100
AcDbLine
 10
125.605376992
 20
165.185085472
 11
124.104419824
 21
162.589084528
  0
LINE
  5
2AC
100
AcDbEntity
  8
Korpus
  6
ByLayer
 62
  256
370
   -1
100
AcDbLine
 10
127.42729888
 20
198.555483584
 11
125.92633888
 21
201.151483584
  0
LINE
  5
2AD
100
AcDbEntity
  8
Korpus
  6
ByLayer
 62
  256
370
   -1
100
AcDbLine
 10
125.92633888
 20
201.151483584
 11
149.280896992
 21
214.650683584
  0
LINE
  5
2AE
100
AcDbEntity
  8
Korpus
  6
ByLayer
 62
  256
370
   -1
100
AcDbLine
 10
149.280896992
 20
214.650683584
 11
150.781856992
 21
212.054683584
  0
LINE
  5
2AF
100
AcDbEntity
  8
Korpus
  6
ByLayer
 62
  256
370
   -1
100
AcDbLine
 10
150.781856992
 20
212.054683584
 11
127.42729888
 21
198.555483584
  0
LINE
  5
2B0
100
AcDbEntity
  8
Korpus
  6
ByLayer
 62
  256
370
   -1
100
AcDbLine
 10
119.03513888
 20
115.209724528
 11
117.53417888
 21
117.815165472
  0
LINE
  5
2B1
100
AcDbEntity
  8
Korpus
  6
ByLayer
 62
  256
370
   -1
100
AcDbLine
 10
117.53417888
 20
117.815165472
 11
148.695616992
 21
135.788926416
  0
LINE
  5
2B2
100
AcDbEntity
  8
Korpus
  6
ByLayer
 62
  256
370
   -1
100
AcDbLine
 10
148.695616992
 20
135.788926416
 11
150.196576992
 21
133.183485472
  0
LINE
  5
2B3
100
AcDbEntity
  8
Korpus
  6
ByLayer
 62
  256
370
   -1
100
AcDbLine
 10
150.196576992
 20
133.183485472
 11
119.03513888
 21
115.209724528
  0
LINE
  5
2B4
100
AcDbEntity
  8
Korpus
  6
ByLayer
 62
  256
370
   -1
100
AcDbLine
 10
295.14794408
 20
32.301820992
 11
298.149860304
 21
32.301820992
  0
LINE
  5
2B5
100
AcDbEntity
  8
Korpus
  6
ByLayer
 62
  256
370
   -1
100
AcDbLine
 10
298.149860304
 20
32.301820992
 11
298.149860304
 21
29.299900048
  0
LINE
  5
2B6
100
AcDbEntity
  8
Korpus
  6
ByLayer
 62
  256
370
   -1
100
AcDbLine
 10
298.149860304
 20
29.299900048
 11
334.116260304
 21
29.299900048
  0
LINE
  5
2B7
100
AcDbEntity
  8
Korpus
  6
ByLayer
 62
  256
370
   -1
100
AcDbLine
 10
334.116260304
 20
29.299900048
 11
334.116260304
 21
32.301820992
  0
LINE
  5
2B8
100
AcDbEntity
  8
Korpus
  6
ByLayer
 62
  256
370
   -1
100
AcDbLine
 10
334.116260304
 20
32.301820992
 11
337.118175584
 21
32.301820992
  0
LINE
  5
2B9
100
AcDbEntity
  8
Korpus
  6
ByLayer
 62
  256
370
   -1
100
AcDbLine
 10
337.118175584
 20
32.301820992
 11
337.118175584
 21
92.24581816000001
  0
LINE
  5
2BA
100
AcDbEntity
  8
Korpus
  6
ByLayer
 62
  256
370
   -1
100
AcDbLine
 10
337.118175584
 20
92.24581816000001
 11
334.116260304
 21
92.24581816000001
  0
LINE
  5
2BB
100
AcDbEntity
  8
Korpus
  6
ByLayer
 62
  256
370
   -1
100
AcDbLine
 10
334.116260304
 20
92.24581816000001
 11
334.116260304
 21
95.23829721600001
  0
LINE
  5
2BC
100
AcDbEntity
  8
Korpus
  6
ByLayer
 62
  256
370
   -1
100
AcDbLine
 10
334.116260304
 20
95.23829721600001
 11
298.149860304
 21
95.23829721600001
  0
LINE
  5
2BD
100
AcDbEntity
  8
Korpus
  6
ByLayer
 62
  256
370
   -1
100
AcDbLine
 10
298.149860304
 20
95.23829721600001
 11
298.149860304
 21
92.24581816000001
  0
LINE
  5
2BE
100
AcDbEntity
  8
Korpus
  6
ByLayer
 62
  256
370
   -1
100
AcDbLine
 10
298.149860304
 20
92.24581816000001
 11
295.14794408
 21
92.24581816000001
  0
LINE
  5
2BF
100
AcDbEntity
  8
Korpus
  6
ByLayer
 62
  256
370
   -1
100
AcDbLine
 10
295.14794408
 20
92.24581816000001
 11
295.14794408
 21
32.301820992
  0
LINE
  5
2C0
100
AcDbEntity
  8
Korpus
  6
ByLayer
 62
  256
370
   -1
100
AcDbLine
 10
296.327482464
 20
169.159324528
 11
299.329397744
 21
169.159324528
  0
LINE
  5
2C1
100
AcDbEntity
  8
Korpus
  6
ByLayer
 62
  256
370
   -1
100
AcDbLine
 10
299.329397744
 20
169.159324528
 11
299.329397744
 21
166.166845472
  0
LINE
  5
2C2
100
AcDbEntity
  8
Korpus
  6
ByLayer
 62
  256
370
   -1
100
AcDbLine
 10
299.329397744
 20
166.166845472
 11
326.299482464
 21
166.166845472
  0
LINE
  5
2C3
100
AcDbEntity
  8
Korpus
  6
ByLayer
 62
  256
370
   -1
100
AcDbLine
 10
326.299482464
 20
166.166845472
 11
326.299482464
 21
169.159324528
  0
LINE
  5
2C4
100
AcDbEntity
  8
Korpus
  6
ByLayer
 62
  256
370
   -1
100
AcDbLine
 10
326.299482464
 20
169.159324528
 11
329.301397744
 21
169.159324528
  0
LINE
  5
2C5
100
AcDbEntity
  8
Korpus
  6
ByLayer
 62
  256
370
   -1
100
AcDbLine
 10
329.301397744
 20
169.159324528
 11
329.301397744
 21
229.103324528
  0
LINE
  5
2C6
100
AcDbEntity
  8
Korpus
  6
ByLayer
 62
  256
370
   -1
100
AcDbLine
 10
329.301397744
 20
229.103324528
 11
326.299482464
 21
229.103324528
  0
LINE
  5
2C7
100
AcDbEntity
  8
Korpus
  6
ByLayer
 62
  256
370
   -1
100
AcDbLine
 10
326.299482464
 20
229.103324528
 11
326.299482464
 21
232.105243584
  0
LINE
  5
2C8
100
AcDbEntity
  8
Korpus
  6
ByLayer
 62
  256
370
   -1
100
AcDbLine
 10
326.299482464
 20
232.105243584
 11
299.329397744
 21
232.105243584
  0
LINE
  5
2C9
100
AcDbEntity
  8
Korpus
  6
ByLayer
 62
  256
370
   -1
100
AcDbLine
 10
299.329397744
 20
232.105243584
 11
299.329397744
 21
229.103324528
  0
LINE
  5
2CA
100
AcDbEntity
  8
Korpus
  6
ByLayer
 62
  256
370
   -1
100
AcDbLine
 10
299.329397744
 20
229.103324528
 11
296.327482464
 21
229.103324528
  0
LINE
  5
2CB
100
AcDbEntity
  8
Korpus
  6
ByLayer
 62
  256
370
   -1
100
AcDbLine
 10
296.327482464
 20
229.103324528
 11
296.327482464
 21
169.159324528
  0
LINE
  5
2CC
100
AcDbEntity
  8
Korpus
  6
ByLayer
 62
  256
370
   -1
100
AcDbLine
 10
296.33222512
 20
100.746753392
 11
299.324708896
 21
100.746753392
  0
LINE
  5
2CD
100
AcDbEntity
  8
Korpus
  6
ByLayer
 62
  256
370
   -1
100
AcDbLine
 10
299.324708896
 20
100.746753392
 11
299.324708896
 21
97.74483527999999
  0
LINE
  5
2CE
100
AcDbEntity
  8
Korpus
  6
ByLayer
 62
  256
370
   -1
100
AcDbLine
 10
299.324708896
 20
97.74483527999999
 11
326.30422512
 21
97.74483527999999
  0
LINE
  5
2CF
100
AcDbEntity
  8
Korpus
  6
ByLayer
 62
  256
370
   -1
100
AcDbLine
 10
326.30422512
 20
97.74483527999999
 11
326.30422512
 21
100.746753392
  0
LINE
  5
2D0
100
AcDbEntity
  8
Korpus
  6
ByLayer
 62
  256
370
   -1
100
AcDbLine
 10
326.30422512
 20
100.746753392
 11
329.296708896
 21
100.746753392
  0
LINE
  5
2D1
100
AcDbEntity
  8
Korpus
  6
ByLayer
 62
  256
370
   -1
100
AcDbLine
 10
329.296708896
 20
100.746753392
 11
329.296708896
 21
160.690753392
  0
LINE
  5
2D2
100
AcDbEntity
  8
Korpus
  6
ByLayer
 62
  256
370
   -1
100
AcDbLine
 10
329.296708896
 20
160.690753392
 11
326.30422512
 21
160.690753392
  0
LINE
  5
2D3
100
AcDbEntity
  8
Korpus
  6
ByLayer
 62
  256
370
   -1
100
AcDbLine
 10
326.30422512
 20
160.690753392
 11
326.30422512
 21
163.683232448
  0
LINE
  5
2D4
100
AcDbEntity
  8
Korpus
  6
ByLayer
 62
  256
370
   -1
100
AcDbLine
 10
326.30422512
 20
163.683232448
 11
299.324708896
 21
163.683232448
  0
LINE
  5
2D5
100
AcDbEntity
  8
Korpus
  6
ByLayer
 62
  256
370
   -1
100
AcDbLine
 10
299.324708896
 20
163.683232448
 11
299.324708896
 21
160.690753392
  0
LINE
  5
2D6
100
AcDbEntity
  8
Korpus
  6
ByLayer
 62
  256
370
   -1
100
AcDbLine
 10
299.324708896
 20
160.690753392
 11
296.33222512
 21
160.690753392
  0
LINE
  5
2D7
100
AcDbEntity
  8
Korpus
  6
ByLayer
 62
  256
370
   -1
100
AcDbLine
 10
296.33222512
 20
160.690753392
 11
296.33222512
 21
100.746753392
  0
SPLINE
  5
2D8
100
AcDbEntity
  8
Korpus
  6
ByLayer
 62
  256
370
   -1
100
AcDbSpline
210
0
220
0
230
0
 70
    8
 71
    3
 72
    8
 73
    4
 74
    0
 42
1e-07
 43
1e-07
 40
0
 40
0
 40
0
 40
0
 40
1
 40
1
 40
1
 40
1
 10
33.594825072
 20
232.095801696
 30
0
 10
39.24938507200001
 20
224.524921696
 30
0
 10
48.132425072
 20
220.07868264
 30
0
 10
57.591303184
 20
220.07868264
 30
0
  0
LINE
  5
2D9
100
AcDbEntity
  8
Korpus
  6
ByLayer
 62
  256
370
   -1
100
AcDbLine
 10
57.591303184
 20
220.07868264
 11
57.591303184
 21
220.07868264
  0
SPLINE
  5
2DA
100
AcDbEntity
  8
Korpus
  6
ByLayer
 62
  256
370
   -1
100
AcDbSpline
210
0
220
0
230
0
 70
    8
 71
    3
 72
    8
 73
    4
 74
    0
 42
1e-07
 43
1e-07
 40
0
 40
0
 40
0
 40
0
 40
1
 40
1
 40
1
 40
1
 10
57.591303184
 20
220.07868264
 30
0
 10
67.031303184
 20
220.07868264
 30
0
 10
75.91434318399999
 20
224.524921696
 30
0
 10
81.559464128
 20
232.095801696
 30
0
  0
LINE
  5
2DB
100
AcDbEntity
  8
Korpus
  6
ByLayer
 62
  256
370
   -1
100
AcDbLine
 10
81.559464128
 20
232.095801696
 11
87.534983184
 21
232.095801696
  0
LINE
  5
2DC
100
AcDbEntity
  8
Korpus
  6
ByLayer
 62
  256
370
   -1
100
AcDbLine
 10
87.534983184
 20
232.095801696
 11
87.534983184
 21
220.09756264
  0
LINE
  5
2DD
100
AcDbEntity
  8
Korpus
  6
ByLayer
 62
  256
370
   -1
100
AcDbLine
 10
87.534983184
 20
220.09756264
 11
90.536904128
 21
220.09756264
  0
LINE
  5
2DE
100
AcDbEntity
  8
Korpus
  6
ByLayer
 62
  256
370
   -1
100
AcDbLine
 10
90.536904128
 20
220.09756264
 11
90.536904128
 21
208.11820264
  0
LINE
  5
2DF
100
AcDbEntity
  8
Korpus
  6
ByLayer
 62
  256
370
   -1
100
AcDbLine
 10
90.536904128
 20
208.11820264
 11
87.534983184
 21
208.11820264
  0
LINE
  5
2E0
100
AcDbEntity
  8
Korpus
  6
ByLayer
 62
  256
370
   -1
100
AcDbLine
 10
87.534983184
 20
208.11820264
 11
87.534983184
 21
196.11996264
  0
LINE
  5
2E1
100
AcDbEntity
  8
Korpus
  6
ByLayer
 62
  256
370
   -1
100
AcDbLine
 10
87.534983184
 20
196.11996264
 11
90.536904128
 21
196.11996264
  0
LINE
  5
2E2
100
AcDbEntity
  8
Korpus
  6
ByLayer
 62
  256
370
   -1
100
AcDbLine
 10
90.536904128
 20
196.11996264
 11
90.536904128
 21
184.140603584
  0
LINE
  5
2E3
100
AcDbEntity
  8
Korpus
  6
ByLayer
 62
  256
370
   -1
100
AcDbLine
 10
90.536904128
 20
184.140603584
 11
87.534983184
 21
184.140603584
  0
LINE
  5
2E4
100
AcDbEntity
  8
Korpus
  6
ByLayer
 62
  256
370
   -1
100
AcDbLine
 10
87.534983184
 20
184.140603584
 11
87.534983184
 21
172.14236264
  0
LINE
  5
2E5
100
AcDbEntity
  8
Korpus
  6
ByLayer
 62
  256
370
   -1
100
AcDbLine
 10
87.534983184
 20
172.14236264
 11
90.536904128
 21
172.14236264
  0
LINE
  5
2E6
100
AcDbEntity
  8
Korpus
  6
ByLayer
 62
  256
370
   -1
100
AcDbLine
 10
90.536904128
 20
172.14236264
 11
90.536904128
 21
160.14412264
  0
LINE
  5
2E7
100
AcDbEntity
  8
Korpus
  6
ByLayer
 62
  256
370
   -1
100
AcDbLine
 10
90.536904128
 20
160.14412264
 11
87.534983184
 21
160.14412264
  0
LINE
  5
2E8
100
AcDbEntity
  8
Korpus
  6
ByLayer
 62
  256
370
   -1
100
AcDbLine
 10
87.534983184
 20
160.14412264
 11
87.534983184
 21
148.164764528
  0
LINE
  5
2E9
100
AcDbEntity
  8
Korpus
  6
ByLayer
 62
  256
370
   -1
100
AcDbLine
 10
87.534983184
 20
148.164764528
 11
90.536904128
 21
148.164764528
  0
LINE
  5
2EA
100
AcDbEntity
  8
Korpus
  6
ByLayer
 62
  256
370
   -1
100
AcDbLine
 10
90.536904128
 20
148.164764528
 11
90.536904128
 21
136.16652264
  0
LINE
  5
2EB
100
AcDbEntity
  8
Korpus
  6
ByLayer
 62
  256
370
   -1
100
AcDbLine
 10
90.536904128
 20
136.16652264
 11
87.534983184
 21
136.16652264
  0
LINE
  5
2EC
100
AcDbEntity
  8
Korpus
  6
ByLayer
 62
  256
370
   -1
100
AcDbLine
 10
87.534983184
 20
136.16652264
 11
87.534983184
 21
124.168283584
  0
LINE
  5
2ED
100
AcDbEntity
  8
Korpus
  6
ByLayer
 62
  256
370
   -1
100
AcDbLine
 10
87.534983184
 20
124.168283584
 11
90.536904128
 21
124.168283584
  0
LINE
  5
2EE
100
AcDbEntity
  8
Korpus
  6
ByLayer
 62
  256
370
   -1
100
AcDbLine
 10
90.536904128
 20
124.168283584
 11
90.536904128
 21
88.220764528
  0
LINE
  5
2EF
100
AcDbEntity
  8
Korpus
  6
ByLayer
 62
  256
370
   -1
100
AcDbLine
 10
90.536904128
 20
88.220764528
 11
63.566825072
 21
88.220764528
  0
LINE
  5
2F0
100
AcDbEntity
  8
Korpus
  6
ByLayer
 62
  256
370
   -1
100
AcDbLine
 10
63.566825072
 20
88.220764528
 11
63.566825072
 21
85.21884641600001
  0
LINE
  5
2F1
100
AcDbEntity
  8
Korpus
  6
ByLayer
 62
  256
370
   -1
100
AcDbLine
 10
63.566825072
 20
85.21884641600001
 11
51.568583184
 21
85.21884641600001
  0
LINE
  5
2F2
100
AcDbEntity
  8
Korpus
  6
ByLayer
 62
  256
370
   -1
100
AcDbLine
 10
51.568583184
 20
85.21884641600001
 11
51.568583184
 21
88.220764528
  0
LINE
  5
2F3
100
AcDbEntity
  8
Korpus
  6
ByLayer
 62
  256
370
   -1
100
AcDbLine
 10
51.568583184
 20
88.220764528
 11
27.600425072
 21
88.220764528
  0
LINE
  5
2F4
100
AcDbEntity
  8
Korpus
  6
ByLayer
 62
  256
370
   -1
100
AcDbLine
 10
27.600425072
 20
88.220764528
 11
27.600425072
 21
100.200125472
  0
LINE
  5
2F5
100
AcDbEntity
  8
Korpus
  6
ByLayer
 62
  256
370
   -1
100
AcDbLine
 10
27.600425072
 20
100.200125472
 11
24.598504128
 21
100.200125472
  0
LINE
  5
2F6
100
AcDbEntity
  8
Korpus
  6
ByLayer
 62
  256
370
   -1
100
AcDbLine
 10
24.598504128
 20
100.200125472
 11
24.598504128
 21
112.198364528
  0
LINE
  5
2F7
100
AcDbEntity
  8
Korpus
  6
ByLayer
 62
  256
370
   -1
100
AcDbLine
 10
24.598504128
 20
112.198364528
 11
27.600425072
 21
112.198364528
  0
LINE
  5
2F8
100
AcDbEntity
  8
Korpus
  6
ByLayer
 62
  256
370
   -1
100
AcDbLine
 10
27.600425072
 20
112.198364528
 11
27.600425072
 21
124.177725472
  0
LINE
  5
2F9
100
AcDbEntity
  8
Korpus
  6
ByLayer
 62
  256
370
   -1
100
AcDbLine
 10
27.600425072
 20
124.177725472
 11
24.598504128
 21
124.177725472
  0
LINE
  5
2FA
100
AcDbEntity
  8
Korpus
  6
ByLayer
 62
  256
370
   -1
100
AcDbLine
 10
24.598504128
 20
124.177725472
 11
24.598504128
 21
136.175964528
  0
LINE
  5
2FB
100
AcDbEntity
  8
Korpus
  6
ByLayer
 62
  256
370
   -1
100
AcDbLine
 10
24.598504128
 20
136.175964528
 11
27.600425072
 21
136.175964528
  0
LINE
  5
2FC
100
AcDbEntity
  8
Korpus
  6
ByLayer
 62
  256
370
   -1
100
AcDbLine
 10
27.600425072
 20
136.175964528
 11
27.600425072
 21
148.00428264
  0
LINE
  5
2FD
100
AcDbEntity
  8
Korpus
  6
ByLayer
 62
  256
370
   -1
100
AcDbLine
 10
27.600425072
 20
148.00428264
 11
24.598504128
 21
148.00428264
  0
LINE
  5
2FE
100
AcDbEntity
  8
Korpus
  6
ByLayer
 62
  256
370
   -1
100
AcDbLine
 10
24.598504128
 20
148.00428264
 11
24.598504128
 21
160.153564528
  0
LINE
  5
2FF
100
AcDbEntity
  8
Korpus
  6
ByLayer
 62
  256
370
   -1
100
AcDbLine
 10
24.598504128
 20
160.153564528
 11
27.600425072
 21
160.153564528
  0
LINE
  5
300
100
AcDbEntity
  8
Korpus
  6
ByLayer
 62
  256
370
   -1
100
AcDbLine
 10
27.600425072
 20
160.153564528
 11
27.600425072
 21
172.151804528
  0
LINE
  5
301
100
AcDbEntity
  8
Korpus
  6
ByLayer
 62
  256
370
   -1
100
AcDbLine
 10
27.600425072
 20
172.151804528
 11
24.598504128
 21
172.151804528
  0
LINE
  5
302
100
AcDbEntity
  8
Korpus
  6
ByLayer
 62
  256
370
   -1
100
AcDbLine
 10
24.598504128
 20
172.151804528
 11
24.598504128
 21
184.150043584
  0
LINE
  5
303
100
AcDbEntity
  8
Korpus
  6
ByLayer
 62
  256
370
   -1
100
AcDbLine
 10
24.598504128
 20
184.150043584
 11
27.600425072
 21
184.150043584
  0
LINE
  5
304
100
AcDbEntity
  8
Korpus
  6
ByLayer
 62
  256
370
   -1
100
AcDbLine
 10
27.600425072
 20
184.150043584
 11
27.600425072
 21
196.12940264
  0
LINE
  5
305
100
AcDbEntity
  8
Korpus
  6
ByLayer
 62
  256
370
   -1
100
AcDbLine
 10
27.600425072
 20
196.12940264
 11
24.598504128
 21
196.12940264
  0
LINE
  5
306
100
AcDbEntity
  8
Korpus
  6
ByLayer
 62
  256
370
   -1
100
AcDbLine
 10
24.598504128
 20
196.12940264
 11
24.598504128
 21
208.12764264
  0
LINE
  5
307
100
AcDbEntity
  8
Korpus
  6
ByLayer
 62
  256
370
   -1
100
AcDbLine
 10
24.598504128
 20
208.12764264
 11
27.600425072
 21
208.12764264
  0
LINE
  5
308
100
AcDbEntity
  8
Korpus
  6
ByLayer
 62
  256
370
   -1
100
AcDbLine
 10
27.600425072
 20
208.12764264
 11
27.600425072
 21
220.10700264
  0
LINE
  5
309
100
AcDbEntity
  8
Korpus
  6
ByLayer
 62
  256
370
   -1
100
AcDbLine
 10
27.600425072
 20
220.10700264
 11
24.598504128
 21
220.10700264
  0
LINE
  5
30A
100
AcDbEntity
  8
Korpus
  6
ByLayer
 62
  256
370
   -1
100
AcDbLine
 10
24.598504128
 20
220.10700264
 11
24.598504128
 21
232.105243584
  0
LINE
  5
30B
100
AcDbEntity
  8
Korpus
  6
ByLayer
 62
  256
370
   -1
100
AcDbLine
 10
24.598504128
 20
232.105243584
 11
33.594825072
 21
232.105243584
  0
LINE
  5
30C
100
AcDbEntity
  8
Korpus
  6
ByLayer
 62
  256
370
   -1
100
AcDbLine
 10
33.594825072
 20
232.105243584
 11
33.594825072
 21
232.095801696
  0
LINE
  5
30D
100
AcDbEntity
  8
Korpus
  6
ByLayer
 62
  256
370
   -1
100
AcDbLine
 10
58.856260352
 20
162.589084528
 11
82.210818464
 21
176.088284528
  0
LINE
  5
30E
100
AcDbEntity
  8
Korpus
  6
ByLayer
 62
  256
370
   -1
100
AcDbLine
 10
82.210818464
 20
176.088284528
 11
80.70985752000001
 21
178.684284528
  0
LINE
  5
30F
100
AcDbEntity
  8
Korpus
  6
ByLayer
 62
  256
370
   -1
100
AcDbLine
 10
80.70985752000001
 20
178.684284528
 11
57.35529940800001
 21
165.185085472
  0
LINE
  5
310
100
AcDbEntity
  8
Korpus
  6
ByLayer
 62
  256
370
   -1
100
AcDbLine
 10
57.35529940800001
 20
165.185085472
 11
58.856260352
 21
162.589084528
  0
LINE
  5
311
100
AcDbEntity
  8
Korpus
  6
ByLayer
 62
  256
370
   -1
100
AcDbLine
 10
55.53338035199999
 20
198.555483584
 11
57.034340352
 21
201.151483584
  0
LINE
  5
312
100
AcDbEntity
  8
Korpus
  6
ByLayer
 62
  256
370
   -1
100
AcDbLine
 10
57.034340352
 20
201.151483584
 11
33.67978035200001
 21
214.650683584
  0
LINE
  5
313
100
AcDbEntity
  8
Korpus
  6
ByLayer
 62
  256
370
   -1
100
AcDbLine
 10
33.67978035200001
 20
214.650683584
 11
32.178819408
 21
212.054683584
  0
LINE
  5
314
100
AcDbEntity
  8
Korpus
  6
ByLayer
 62
  256
370
   -1
100
AcDbLine
 10
32.178819408
 20
212.054683584
 11
55.53338035199999
 21
198.555483584
  0
LINE
  5
315
100
AcDbEntity
  8
Korpus
  6
ByLayer
 62
  256
370
   -1
100
AcDbLine
 10
63.925540352
 20
115.209724528
 11
65.42649846400001
 21
117.815165472
  0
LINE
  5
316
100
AcDbEntity
  8
Korpus
  6
ByLayer
 62
  256
370
   -1
100
AcDbLine
 10
65.42649846400001
 20
117.815165472
 11
34.265060352
 21
135.788926416
  0
LINE
  5
317
100
AcDbEntity
  8
Korpus
  6
ByLayer
 62
  256
370
   -1
100
AcDbLine
 10
34.265060352
 20
135.788926416
 11
32.76409940800001
 21
133.183485472
  0
LINE
  5
318
100
AcDbEntity
  8
Korpus
  6
ByLayer
 62
  256
370
   -1
100
AcDbLine
 10
32.76409940800001
 20
133.183485472
 11
63.925540352
 21
115.209724528
  0
LINE
  5
319
100
AcDbEntity
  8
Korpus
  6
ByLayer
 62
  256
370
   -1
100
AcDbLine
 10
160.443326
 20
94.72761775999999
 11
163.435806
 21
94.72761775999999
  0
LINE
  5
31A
100
AcDbEntity
  8
Korpus
  6
ByLayer
 62
  256
370
   -1
100
AcDbLine
 10
163.435806
 20
94.72761775999999
 11
163.435806
 21
82.72937776000001
  0
LINE
  5
31B
100
AcDbEntity
  8
Korpus
  6
ByLayer
 62
  256
370
   -1
100
AcDbLine
 10
163.435806
 20
82.72937776000001
 11
160.443326
 21
82.72937776000001
  0
LINE
  5
31C
100
AcDbEntity
  8
Korpus
  6
ByLayer
 62
  256
370
   -1
100
AcDbLine
 10
160.443326
 20
82.72937776000001
 11
160.443326
 21
55.759298704
  0
LINE
  5
31D
100
AcDbEntity
  8
Korpus
  6
ByLayer
 62
  256
370
   -1
100
AcDbLine
 10
160.443326
 20
55.759298704
 11
226.381725056
 21
55.759298704
  0
LINE
  5
31E
100
AcDbEntity
  8
Korpus
  6
ByLayer
 62
  256
370
   -1
100
AcDbLine
 10
226.381725056
 20
55.759298704
 11
226.381725056
 21
82.72937776000001
  0
LINE
  5
31F
100
AcDbEntity
  8
Korpus
  6
ByLayer
 62
  256
370
   -1
100
AcDbLine
 10
226.381725056
 20
82.72937776000001
 11
223.379805056
 21
82.72937776000001
  0
LINE
  5
320
100
AcDbEntity
  8
Korpus
  6
ByLayer
 62
  256
370
   -1
100
AcDbLine
 10
223.379805056
 20
82.72937776000001
 11
223.379805056
 21
94.72761775999999
  0
LINE
  5
321
100
AcDbEntity
  8
Korpus
  6
ByLayer
 62
  256
370
   -1
100
AcDbLine
 10
223.379805056
 20
94.72761775999999
 11
226.381725056
 21
94.72761775999999
  0
LINE
  5
322
100
AcDbEntity
  8
Korpus
  6
ByLayer
 62
  256
370
   -1
100
AcDbLine
 10
226.381725056
 20
94.72761775999999
 11
226.381725056
 21
121.697696816
  0
LINE
  5
323
100
AcDbEntity
  8
Korpus
  6
ByLayer
 62
  256
370
   -1
100
AcDbLine
 10
226.381725056
 20
121.697696816
 11
199.383325056
 21
121.697696816
  0
LINE
  5
324
100
AcDbEntity
  8
Korpus
  6
ByLayer
 62
  256
370
   -1
100
AcDbLine
 10
199.383325056
 20
121.697696816
 11
199.383325056
 21
118.705216816
  0
LINE
  5
325
100
AcDbEntity
  8
Korpus
  6
ByLayer
 62
  256
370
   -1
100
AcDbLine
 10
187.413406
 20
118.705216816
 11
187.413406
 21
121.697696816
  0
LINE
  5
326
100
AcDbEntity
  8
Korpus
  6
ByLayer
 62
  256
370
   -1
100
AcDbLine
 10
187.413406
 20
121.697696816
 11
160.443326
 21
121.697696816
  0
LINE
  5
327
100
AcDbEntity
  8
Korpus
  6
ByLayer
 62
  256
370
   -1
100
AcDbLine
 10
160.443326
 20
121.697696816
 11
160.443326
 21
94.72761775999999
  0
SPLINE
  5
328
100
AcDbEntity
  8
Korpus
  6
ByLayer
 62
  256
370
   -1
100
AcDbSpline
210
0
220
0
230
0
 70
    8
 71
    3
 72
    8
 73
    4
 74
    0
 42
1e-07
 43
1e-07
 40
0
 40
0
 40
0
 40
0
 40
1
 40
1
 40
1
 40
1
 10
186.205086
 20
78.99113776
 30
0
 10
186.205086
 20
79.39705776000001
 30
0
 10
186.535486
 20
79.72745776000001
 30
0
 10
186.941406
 20
79.72745776000001
 30
0
  0
LINE
  5
329
100
AcDbEntity
  8
Korpus
  6
ByLayer
 62
  256
370
   -1
100
AcDbLine
 10
186.941406
 20
79.72745776000001
 11
199.845885056
 21
79.72745776000001
  0
SPLINE
  5
32A
100
AcDbEntity
  8
Korpus
  6
ByLayer
 62
  256
370
   -1
100
AcDbSpline
210
0
220
0
230
0
 70
    8
 71
    3
 72
    8
 73
    4
 74
    0
 42
1e-07
 43
1e-07
 40
0
 40
0
 40
0
 40
0
 40
1
 40
1
 40
1
 40
1
 10
199.845885056
 20
79.72745776000001
 30
0
 10
200.251805056
 20
79.72745776000001
 30
0
 10
200.582205056
 20
79.39705776000001
 30
0
 10
200.582205056
 20
78.99113776
 30
0
  0
LINE
  5
32B
100
AcDbEntity
  8
Korpus
  6
ByLayer
 62
  256
370
   -1
100
AcDbLine
 10
200.582205056
 20
78.99113776
 11
200.582205056
 21
75.67769776
  0
SPLINE
  5
32C
100
AcDbEntity
  8
Korpus
  6
ByLayer
 62
  256
370
   -1
100
AcDbSpline
210
0
220
0
230
0
 70
    8
 71
    3
 72
    8
 73
    4
 74
    0
 42
1e-07
 43
1e-07
 40
0
 40
0
 40
0
 40
0
 40
1
 40
1
 40
1
 40
1
 10
200.582205056
 20
75.67769776
 30
0
 10
200.582205056
 20
75.27177776000001
 30
0
 10
200.251805056
 20
74.94137775999999
 30
0
 10
199.845885056
 20
74.94137775999999
 30
0
  0
LINE
  5
32D
100
AcDbEntity
  8
Korpus
  6
ByLayer
 62
  256
370
   -1
100
AcDbLine
 10
199.845885056
 20
74.94137775999999
 11
186.941406
 21
74.94137775999999
  0
SPLINE
  5
32E
100
AcDbEntity
  8
Korpus
  6
ByLayer
 62
  256
370
   -1
100
AcDbSpline
210
0
220
0
230
0
 70
    8
 71
    3
 72
    8
 73
    4
 74
    0
 42
1e-07
 43
1e-07
 40
0
 40
0
 40
0
 40
0
 40
1
 40
1
 40
1
 40
1
 10
186.941406
 20
74.94137775999999
 30
0
 10
186.535486
 20
74.94137775999999
 30
0
 10
186.205086
 20
75.27177776000001
 30
0
 10
186.205086
 20
75.67769776
 30
0
  0
LINE
  5
32F
100
AcDbEntity
  8
Korpus
  6
ByLayer
 62
  256
370
   -1
100
AcDbLine
 10
186.205086
 20
75.67769776
 11
186.205086
 21
78.99113776
  0
SPLINE
  5
330
100
AcDbEntity
  8
Korpus
  6
ByLayer
 62
  256
370
   -1
100
AcDbSpline
210
0
220
0
230
0
 70
    8
 71
    3
 72
    8
 73
    4
 74
    0
 42
1e-07
 43
1e-07
 40
0
 40
0
 40
0
 40
0
 40
1
 40
1
 40
1
 40
1
 10
193.392926672
 20
128.595649248
 30
0
 10
186.180765728
 20
128.595649248
 30
0
 10
179.034665904
 20
127.094688304
 30
0
 10
172.4172108
 20
124.177728304
 30
0
  0
LINE
  5
331
100
AcDbEntity
  8
Korpus
  6
ByLayer
 62
  256
370
   -1
100
AcDbLine
 10
172.4172108
 20
124.177728304
 11
160.249049856
 21
124.177728304
  0
LINE
  5
332
100
AcDbEntity
  8
Korpus
  6
ByLayer
 62
  256
370
   -1
100
AcDbLine
 10
160.249049856
 20
124.177728304
 11
160.249049856
 21
136.17596736
  0
LINE
  5
333
100
AcDbEntity
  8
Korpus
  6
ByLayer
 62
  256
370
   -1
100
AcDbLine
 10
160.249049856
 20
136.17596736
 11
163.2509708
 21
136.17596736
  0
LINE
  5
334
100
AcDbEntity
  8
Korpus
  6
ByLayer
 62
  256
370
   -1
100
AcDbLine
 10
163.2509708
 20
136.17596736
 11
163.2509708
 21
148.155325472
  0
LINE
  5
335
100
AcDbEntity
  8
Korpus
  6
ByLayer
 62
  256
370
   -1
100
AcDbLine
 10
163.2509708
 20
148.155325472
 11
160.249049856
 21
148.155325472
  0
LINE
  5
336
100
AcDbEntity
  8
Korpus
  6
ByLayer
 62
  256
370
   -1
100
AcDbLine
 10
160.249049856
 20
148.155325472
 11
160.249049856
 21
160.153564528
  0
LINE
  5
337
100
AcDbEntity
  8
Korpus
  6
ByLayer
 62
  256
370
   -1
100
AcDbLine
 10
160.249049856
 20
160.153564528
 11
163.2509708
 21
160.153564528
  0
LINE
  5
338
100
AcDbEntity
  8
Korpus
  6
ByLayer
 62
  256
370
   -1
100
AcDbLine
 10
163.2509708
 20
160.153564528
 11
163.2509708
 21
172.151804528
  0
LINE
  5
339
100
AcDbEntity
  8
Korpus
  6
ByLayer
 62
  256
370
   -1
100
AcDbLine
 10
163.2509708
 20
172.151804528
 11
160.249049856
 21
172.151804528
  0
LINE
  5
33A
100
AcDbEntity
  8
Korpus
  6
ByLayer
 62
  256
370
   -1
100
AcDbLine
 10
160.249049856
 20
172.151804528
 11
160.249049856
 21
184.131164528
  0
LINE
  5
33B
100
AcDbEntity
  8
Korpus
  6
ByLayer
 62
  256
370
   -1
100
AcDbLine
 10
160.249049856
 20
184.131164528
 11
163.2509708
 21
184.131164528
  0
LINE
  5
33C
100
AcDbEntity
  8
Korpus
  6
ByLayer
 62
  256
370
   -1
100
AcDbLine
 10
163.2509708
 20
184.131164528
 11
163.2509708
 21
196.12940264
  0
LINE
  5
33D
100
AcDbEntity
  8
Korpus
  6
ByLayer
 62
  256
370
   -1
100
AcDbLine
 10
163.2509708
 20
196.12940264
 11
160.249049856
 21
196.12940264
  0
LINE
  5
33E
100
AcDbEntity
  8
Korpus
  6
ByLayer
 62
  256
370
   -1
100
AcDbLine
 10
160.249049856
 20
196.12940264
 11
160.249049856
 21
208.108758864
  0
LINE
  5
33F
100
AcDbEntity
  8
Korpus
  6
ByLayer
 62
  256
370
   -1
100
AcDbLine
 10
160.249049856
 20
208.108758864
 11
163.2509708
 21
208.108758864
  0
LINE
  5
340
100
AcDbEntity
  8
Korpus
  6
ByLayer
 62
  256
370
   -1
100
AcDbLine
 10
163.2509708
 20
208.108758864
 11
163.2509708
 21
220.106998864
  0
LINE
  5
341
100
AcDbEntity
  8
Korpus
  6
ByLayer
 62
  256
370
   -1
100
AcDbLine
 10
163.2509708
 20
220.106998864
 11
160.249049856
 21
220.106998864
  0
LINE
  5
342
100
AcDbEntity
  8
Korpus
  6
ByLayer
 62
  256
370
   -1
100
AcDbLine
 10
160.249049856
 20
220.106998864
 11
160.249049856
 21
232.10523792
  0
LINE
  5
343
100
AcDbEntity
  8
Korpus
  6
ByLayer
 62
  256
370
   -1
100
AcDbLine
 10
160.249049856
 20
232.10523792
 11
169.264249856
 21
232.10523792
  0
SPLINE
  5
344
100
AcDbEntity
  8
Korpus
  6
ByLayer
 62
  256
370
   -1
100
AcDbSpline
210
0
220
0
230
0
 70
    8
 71
    3
 72
    8
 73
    4
 74
    0
 42
1e-07
 43
1e-07
 40
0
 40
0
 40
0
 40
0
 40
1
 40
1
 40
1
 40
1
 10
169.264249856
 20
232.10523792
 30
0
 10
174.918809856
 20
224.524918864
 30
0
 10
183.792447616
 20
220.069238864
 30
0
 10
193.232447616
 20
220.069238864
 30
0
  0
SPLINE
  5
345
100
AcDbEntity
  8
Korpus
  6
ByLayer
 62
  256
370
   -1
100
AcDbSpline
210
0
220
0
230
0
 70
    8
 71
    3
 72
    8
 73
    4
 74
    0
 42
1e-07
 43
1e-07
 40
0
 40
0
 40
0
 40
0
 40
1
 40
1
 40
1
 40
1
 10
193.592676128
 20
220.069240752
 30
0
 10
203.032676128
 20
220.069240752
 30
0
 10
211.906277072
 20
224.524920752
 30
0
 10
217.560837072
 20
232.105240752
 30
0
  0
LINE
  5
346
100
AcDbEntity
  8
Korpus
  6
ByLayer
 62
  256
370
   -1
100
AcDbLine
 10
217.560837072
 20
232.105240752
 11
226.576037072
 21
232.105240752
  0
LINE
  5
347
100
AcDbEntity
  8
Korpus
  6
ByLayer
 62
  256
370
   -1
100
AcDbLine
 10
226.576037072
 20
232.105240752
 11
226.576037072
 21
220.107000752
  0
LINE
  5
348
100
AcDbEntity
  8
Korpus
  6
ByLayer
 62
  256
370
   -1
100
AcDbLine
 10
226.576037072
 20
220.107000752
 11
223.574116128
 21
220.107000752
  0
LINE
  5
349
100
AcDbEntity
  8
Korpus
  6
ByLayer
 62
  256
370
   -1
100
AcDbLine
 10
223.574116128
 20
220.107000752
 11
223.574116128
 21
208.108760752
  0
LINE
  5
34A
100
AcDbEntity
  8
Korpus
  6
ByLayer
 62
  256
370
   -1
100
AcDbLine
 10
223.574116128
 20
208.108760752
 11
226.576037072
 21
208.108760752
  0
LINE
  5
34B
100
AcDbEntity
  8
Korpus
  6
ByLayer
 62
  256
370
   -1
100
AcDbLine
 10
226.576037072
 20
208.108760752
 11
226.576037072
 21
196.129400752
  0
LINE
  5
34C
100
AcDbEntity
  8
Korpus
  6
ByLayer
 62
  256
370
   -1
100
AcDbLine
 10
226.576037072
 20
196.129400752
 11
223.574116128
 21
196.129400752
  0
LINE
  5
34D
100
AcDbEntity
  8
Korpus
  6
ByLayer
 62
  256
370
   -1
100
AcDbLine
 10
223.574116128
 20
196.129400752
 11
223.574116128
 21
184.131161696
  0
LINE
  5
34E
100
AcDbEntity
  8
Korpus
  6
ByLayer
 62
  256
370
   -1
100
AcDbLine
 10
223.574116128
 20
184.131161696
 11
226.576037072
 21
184.131161696
  0
LINE
  5
34F
100
AcDbEntity
  8
Korpus
  6
ByLayer
 62
  256
370
   -1
100
AcDbLine
 10
226.576037072
 20
184.131161696
 11
226.576037072
 21
172.151801696
  0
LINE
  5
350
100
AcDbEntity
  8
Korpus
  6
ByLayer
 62
  256
370
   -1
100
AcDbLine
 10
226.576037072
 20
172.151801696
 11
223.574116128
 21
172.151801696
  0
LINE
  5
351
100
AcDbEntity
  8
Korpus
  6
ByLayer
 62
  256
370
   -1
100
AcDbLine
 10
223.574116128
 20
172.151801696
 11
223.574116128
 21
160.15356264
  0
LINE
  5
352
100
AcDbEntity
  8
Korpus
  6
ByLayer
 62
  256
370
   -1
100
AcDbLine
 10
223.574116128
 20
160.15356264
 11
226.576037072
 21
160.15356264
  0
LINE
  5
353
100
AcDbEntity
  8
Korpus
  6
ByLayer
 62
  256
370
   -1
100
AcDbLine
 10
226.576037072
 20
160.15356264
 11
226.576037072
 21
148.15532264
  0
LINE
  5
354
100
AcDbEntity
  8
Korpus
  6
ByLayer
 62
  256
370
   -1
100
AcDbLine
 10
226.576037072
 20
148.15532264
 11
223.574116128
 21
148.15532264
  0
LINE
  5
355
100
AcDbEntity
  8
Korpus
  6
ByLayer
 62
  256
370
   -1
100
AcDbLine
 10
223.574116128
 20
148.15532264
 11
223.574116128
 21
136.175959808
  0
LINE
  5
356
100
AcDbEntity
  8
Korpus
  6
ByLayer
 62
  256
370
   -1
100
AcDbLine
 10
223.574116128
 20
136.175959808
 11
226.576037072
 21
136.175959808
  0
LINE
  5
357
100
AcDbEntity
  8
Korpus
  6
ByLayer
 62
  256
370
   -1
100
AcDbLine
 10
226.576037072
 20
136.175959808
 11
226.576037072
 21
124.177720752
  0
LINE
  5
358
100
AcDbEntity
  8
Korpus
  6
ByLayer
 62
  256
370
   -1
100
AcDbLine
 10
226.576037072
 20
124.177720752
 11
214.407876128
 21
124.177720752
  0
SPLINE
  5
359
100
AcDbEntity
  8
Korpus
  6
ByLayer
 62
  256
370
   -1
100
AcDbSpline
210
0
220
0
230
0
 70
    8
 71
    3
 72
    8
 73
    4
 74
    0
 42
1e-07
 43
1e-07
 40
0
 40
0
 40
0
 40
0
 40
1
 40
1
 40
1
 40
1
 10
214.407876128
 20
124.177720752
 30
0
 10
207.790437072
 20
127.09467792
 30
0
 10
200.644358016
 20
128.595638864
 30
0
 10
193.432197072
 20
128.595638864
 30
0
  0
LINE
  5
35A
100
AcDbEntity
  8
Korpus
  6
ByLayer
 62
  256
370
   -1
100
AcDbLine
 10
267.470493728
 20
85.218841696
 11
267.470493728
 21
88.22076264
  0
LINE
  5
35B
100
AcDbEntity
  8
Korpus
  6
ByLayer
 62
  256
370
   -1
100
AcDbLine
 10
267.470493728
 20
88.22076264
 11
294.440552016
 21
88.22076264
  0
LINE
  5
35C
100
AcDbEntity
  8
Korpus
  6
ByLayer
 62
  256
370
   -1
100
AcDbLine
 10
294.440552016
 20
88.22076264
 11
294.440552016
 21
100.200120752
  0
LINE
  5
35D
100
AcDbEntity
  8
Korpus
  6
ByLayer
 62
  256
370
   -1
100
AcDbLine
 10
294.440552016
 20
100.200120752
 11
291.438636736
 21
100.200120752
  0
LINE
  5
35E
100
AcDbEntity
  8
Korpus
  6
ByLayer
 62
  256
370
   -1
100
AcDbLine
 10
291.438636736
 20
100.200120752
 11
291.438636736
 21
112.19836264
  0
LINE
  5
35F
100
AcDbEntity
  8
Korpus
  6
ByLayer
 62
  256
370
   -1
100
AcDbLine
 10
291.438636736
 20
112.19836264
 11
294.440552016
 21
112.19836264
  0
LINE
  5
360
100
AcDbEntity
  8
Korpus
  6
ByLayer
 62
  256
370
   -1
100
AcDbLine
 10
294.440552016
 20
112.19836264
 11
294.440552016
 21
124.177720752
  0
LINE
  5
361
100
AcDbEntity
  8
Korpus
  6
ByLayer
 62
  256
370
   -1
100
AcDbLine
 10
294.440552016
 20
124.177720752
 11
291.438636736
 21
124.177720752
  0
LINE
  5
362
100
AcDbEntity
  8
Korpus
  6
ByLayer
 62
  256
370
   -1
100
AcDbLine
 10
291.438636736
 20
124.177720752
 11
291.438636736
 21
136.175959808
  0
LINE
  5
363
100
AcDbEntity
  8
Korpus
  6
ByLayer
 62
  256
370
   -1
100
AcDbLine
 10
291.438636736
 20
136.175959808
 11
294.440552016
 21
136.175959808
  0
LINE
  5
364
100
AcDbEntity
  8
Korpus
  6
ByLayer
 62
  256
370
   -1
100
AcDbLine
 10
294.440552016
 20
136.175959808
 11
294.440552016
 21
148.174206416
  0
LINE
  5
365
100
AcDbEntity
  8
Korpus
  6
ByLayer
 62
  256
370
   -1
100
AcDbLine
 10
294.440552016
 20
148.174206416
 11
291.438636736
 21
148.174206416
  0
LINE
  5
366
100
AcDbEntity
  8
Korpus
  6
ByLayer
 62
  256
370
   -1
100
AcDbLine
 10
291.438636736
 20
148.174206416
 11
291.438636736
 21
160.15356736
  0
LINE
  5
367
100
AcDbEntity
  8
Korpus
  6
ByLayer
 62
  256
370
   -1
100
AcDbLine
 10
291.438636736
 20
160.15356736
 11
294.440552016
 21
160.15356736
  0
LINE
  5
368
100
AcDbEntity
  8
Korpus
  6
ByLayer
 62
  256
370
   -1
100
AcDbLine
 10
294.440552016
 20
160.15356736
 11
294.440552016
 21
172.151806416
  0
LINE
  5
369
100
AcDbEntity
  8
Korpus
  6
ByLayer
 62
  256
370
   -1
100
AcDbLine
 10
294.440552016
 20
172.151806416
 11
291.438636736
 21
172.151806416
  0
LINE
  5
36A
100
AcDbEntity
  8
Korpus
  6
ByLayer
 62
  256
370
   -1
100
AcDbLine
 10
291.438636736
 20
172.151806416
 11
291.438636736
 21
184.150040752
  0
LINE
  5
36B
100
AcDbEntity
  8
Korpus
  6
ByLayer
 62
  256
370
   -1
100
AcDbLine
 10
291.438636736
 20
184.150040752
 11
294.440552016
 21
184.150040752
  0
LINE
  5
36C
100
AcDbEntity
  8
Korpus
  6
ByLayer
 62
  256
370
   -1
100
AcDbLine
 10
294.440552016
 20
184.150040752
 11
294.440552016
 21
196.129410192
  0
LINE
  5
36D
100
AcDbEntity
  8
Korpus
  6
ByLayer
 62
  256
370
   -1
100
AcDbLine
 10
294.440552016
 20
196.129410192
 11
291.438636736
 21
196.129410192
  0
LINE
  5
36E
100
AcDbEntity
  8
Korpus
  6
ByLayer
 62
  256
370
   -1
100
AcDbLine
 10
291.438636736
 20
196.129410192
 11
291.438636736
 21
208.127649248
  0
LINE
  5
36F
100
AcDbEntity
  8
Korpus
  6
ByLayer
 62
  256
370
   -1
100
AcDbLine
 10
291.438636736
 20
208.127649248
 11
294.440552016
 21
208.127649248
  0
LINE
  5
370
100
AcDbEntity
  8
Korpus
  6
ByLayer
 62
  256
370
   -1
100
AcDbLine
 10
294.440552016
 20
208.127649248
 11
294.440552016
 21
220.106999808
  0
LINE
  5
371
100
AcDbEntity
  8
Korpus
  6
ByLayer
 62
  256
370
   -1
100
AcDbLine
 10
294.440552016
 20
220.106999808
 11
291.438636736
 21
220.106999808
  0
LINE
  5
372
100
AcDbEntity
  8
Korpus
  6
ByLayer
 62
  256
370
   -1
100
AcDbLine
 10
291.438636736
 20
220.106999808
 11
291.438636736
 21
232.105240752
  0
LINE
  5
373
100
AcDbEntity
  8
Korpus
  6
ByLayer
 62
  256
370
   -1
100
AcDbLine
 10
291.438636736
 20
232.105240752
 11
285.463125232
 21
232.105240752
  0
SPLINE
  5
374
100
AcDbEntity
  8
Korpus
  6
ByLayer
 62
  256
370
   -1
100
AcDbSpline
210
0
220
0
230
0
 70
    8
 71
    3
 72
    8
 73
    4
 74
    0
 42
1e-07
 43
1e-07
 40
0
 40
0
 40
0
 40
0
 40
1
 40
1
 40
1
 40
1
 10
285.463125232
 20
232.105240752
 30
0
 10
279.818026
 20
224.534359808
 30
0
 10
270.934964288
 20
220.088120752
 30
0
 10
261.494975616
 20
220.088120752
 30
0
  0
LINE
  5
375
100
AcDbEntity
  8
Korpus
  6
ByLayer
 62
  256
370
   -1
100
AcDbLine
 10
261.494975616
 20
220.088120752
 11
261.45174136
 21
220.088120752
  0
LINE
  5
376
100
AcDbEntity
  8
Korpus
  6
ByLayer
 62
  256
370
   -1
100
AcDbLine
 10
261.45174136
 20
220.088120752
 11
261.4085061599999
 21
220.088120752
  0
SPLINE
  5
377
100
AcDbEntity
  8
Korpus
  6
ByLayer
 62
  256
370
   -1
100
AcDbSpline
210
0
220
0
230
0
 70
    8
 71
    3
 72
    8
 73
    4
 74
    0
 42
1e-07
 43
1e-07
 40
0
 40
0
 40
0
 40
0
 40
1
 40
1
 40
1
 40
1
 10
261.4085061599999
 20
220.088120752
 30
0
 10
251.968507104
 20
220.088120752
 30
0
 10
243.085467104
 20
224.534361696
 30
0
 10
237.44034616
 20
232.105240752
 30
0
  0
LINE
  5
378
100
AcDbEntity
  8
Korpus
  6
ByLayer
 62
  256
370
   -1
100
AcDbLine
 10
237.44034616
 20
232.105240752
 11
231.464827104
 21
232.105240752
  0
LINE
  5
379
100
AcDbEntity
  8
Korpus
  6
ByLayer
 62
  256
370
   -1
100
AcDbLine
 10
231.464827104
 20
232.105240752
 11
231.464827104
 21
220.10700264
  0
LINE
  5
37A
100
AcDbEntity
  8
Korpus
  6
ByLayer
 62
  256
370
   -1
100
AcDbLine
 10
231.464827104
 20
220.10700264
 11
228.46290616
 21
220.10700264
  0
LINE
  5
37B
100
AcDbEntity
  8
Korpus
  6
ByLayer
 62
  256
370
   -1
100
AcDbLine
 10
228.46290616
 20
220.10700264
 11
228.46290616
 21
208.127640752
  0
LINE
  5
37C
100
AcDbEntity
  8
Korpus
  6
ByLayer
 62
  256
370
   -1
100
AcDbLine
 10
228.46290616
 20
208.127640752
 11
231.464827104
 21
208.127640752
  0
LINE
  5
37D
100
AcDbEntity
  8
Korpus
  6
ByLayer
 62
  256
370
   -1
100
AcDbLine
 10
231.464827104
 20
208.127640752
 11
231.464827104
 21
196.129404528
  0
LINE
  5
37E
100
AcDbEntity
  8
Korpus
  6
ByLayer
 62
  256
370
   -1
100
AcDbLine
 10
231.464827104
 20
196.129404528
 11
228.46290616
 21
196.129404528
  0
LINE
  5
37F
100
AcDbEntity
  8
Korpus
  6
ByLayer
 62
  256
370
   -1
100
AcDbLine
 10
228.46290616
 20
196.129404528
 11
228.46290616
 21
184.150043584
  0
LINE
  5
380
100
AcDbEntity
  8
Korpus
  6
ByLayer
 62
  256
370
   -1
100
AcDbLine
 10
228.46290616
 20
184.150043584
 11
231.464827104
 21
184.150043584
  0
LINE
  5
381
100
AcDbEntity
  8
Korpus
  6
ByLayer
 62
  256
370
   -1
100
AcDbLine
 10
231.464827104
 20
184.150043584
 11
231.464827104
 21
172.151804528
  0
LINE
  5
382
100
AcDbEntity
  8
Korpus
  6
ByLayer
 62
  256
370
   -1
100
AcDbLine
 10
231.464827104
 20
172.151804528
 11
228.46290616
 21
172.151804528
  0
LINE
  5
383
100
AcDbEntity
  8
Korpus
  6
ByLayer
 62
  256
370
   -1
100
AcDbLine
 10
228.46290616
 20
172.151804528
 11
228.46290616
 21
160.153564528
  0
LINE
  5
384
100
AcDbEntity
  8
Korpus
  6
ByLayer
 62
  256
370
   -1
100
AcDbLine
 10
228.46290616
 20
160.153564528
 11
231.464827104
 21
160.153564528
  0
LINE
  5
385
100
AcDbEntity
  8
Korpus
  6
ByLayer
 62
  256
370
   -1
100
AcDbLine
 10
231.464827104
 20
160.153564528
 11
231.464827104
 21
148.174204528
  0
LINE
  5
386
100
AcDbEntity
  8
Korpus
  6
ByLayer
 62
  256
370
   -1
100
AcDbLine
 10
231.464827104
 20
148.174204528
 11
228.46290616
 21
148.174204528
  0
LINE
  5
387
100
AcDbEntity
  8
Korpus
  6
ByLayer
 62
  256
370
   -1
100
AcDbLine
 10
228.46290616
 20
148.174204528
 11
228.46290616
 21
136.175959808
  0
LINE
  5
388
100
AcDbEntity
  8
Korpus
  6
ByLayer
 62
  256
370
   -1
100
AcDbLine
 10
228.46290616
 20
136.175959808
 11
231.464827104
 21
136.175959808
  0
LINE
  5
389
100
AcDbEntity
  8
Korpus
  6
ByLayer
 62
  256
370
   -1
100
AcDbLine
 10
231.464827104
 20
136.175959808
 11
231.464827104
 21
124.177720752
  0
LINE
  5
38A
100
AcDbEntity
  8
Korpus
  6
ByLayer
 62
  256
370
   -1
100
AcDbLine
 10
231.464827104
 20
124.177720752
 11
228.46290616
 21
124.177720752
  0
LINE
  5
38B
100
AcDbEntity
  8
Korpus
  6
ByLayer
 62
  256
370
   -1
100
AcDbLine
 10
228.46290616
 20
124.177720752
 11
228.46290616
 21
112.19836264
  0
LINE
  5
38C
100
AcDbEntity
  8
Korpus
  6
ByLayer
 62
  256
370
   -1
100
AcDbLine
 10
228.46290616
 20
112.19836264
 11
231.464827104
 21
112.19836264
  0
LINE
  5
38D
100
AcDbEntity
  8
Korpus
  6
ByLayer
 62
  256
370
   -1
100
AcDbLine
 10
231.464827104
 20
112.19836264
 11
231.464827104
 21
100.200120752
  0
LINE
  5
38E
100
AcDbEntity
  8
Korpus
  6
ByLayer
 62
  256
370
   -1
100
AcDbLine
 10
231.464827104
 20
100.200120752
 11
228.46290616
 21
100.200120752
  0
LINE
  5
38F
100
AcDbEntity
  8
Korpus
  6
ByLayer
 62
  256
370
   -1
100
AcDbLine
 10
228.46290616
 20
100.200120752
 11
228.46290616
 21
88.22076264
  0
LINE
  5
390
100
AcDbEntity
  8
Korpus
  6
ByLayer
 62
  256
370
   -1
100
AcDbLine
 10
228.46290616
 20
88.22076264
 11
255.4329852159999
 21
88.22076264
  0
LINE
  5
391
100
AcDbEntity
  8
Korpus
  6
ByLayer
 62
  256
370
   -1
100
AcDbLine
 10
255.4329852159999
 20
88.22076264
 11
255.4329852159999
 21
85.218841696
  0
LINE
  5
392
100
AcDbEntity
  8
Korpus
  6
ByLayer
 62
  256
370
   -1
100
AcDbLine
 10
255.4329852159999
 20
85.218841696
 11
261.45174136
 21
85.218841696
  0
LINE
  5
393
100
AcDbEntity
  8
Korpus
  6
ByLayer
 62
  256
370
   -1
100
AcDbLine
 10
261.45174136
 20
85.218841696
 11
267.470493728
 21
85.218841696
  0
LINE
  5
394
100
AcDbEntity
  8
Korpus
  6
ByLayer
 62
  256
370
   -1
100
AcDbLine
 10
24.598504128
 20
236.105243584
 11
337.598504128
 21
236.105243584
  0
LINE
  5
395
100
AcDbEntity
  8
Korpus
  6
ByLayer
 62
  256
370
   -1
100
AcDbLine
 10
187.413406
 20
118.705216816
 11
186.413406
 21
118.705216816
  0
LINE
  5
396
100
AcDbEntity
  8
Korpus
  6
ByLayer
 62
  256
370
   -1
100
AcDbLine
 10
186.413406
 20
118.705216816
 11
186.413406
 21
114.705216816
  0
LINE
  5
397
100
AcDbEntity
  8
Korpus
  6
ByLayer
 62
  256
370
   -1
100
AcDbLine
 10
186.413406
 20
114.705216816
 11
200.413406
 21
114.705216816
  0
LINE
  5
398
100
AcDbEntity
  8
Korpus
  6
ByLayer
 62
  256
370
   -1
100
AcDbLine
 10
200.413406
 20
114.705216816
 11
200.413406
 21
118.705216816
  0
LINE
  5
399
100
AcDbEntity
  8
Korpus
  6
ByLayer
 62
  256
370
   -1
100
AcDbLine
 10
200.413406
 20
118.705216816
 11
199.413406
 21
118.705216816
  0
CIRCLE
  5
39A
100
AcDbEntity
  8
Korpus
  6
ByLayer
 62
  256
370
   -1
100
AcDbCircle
 10
175
 20
182
 40
1
  0
CIRCLE
  5
39B
100
AcDbEntity
  8
Korpus
  6
ByLayer
 62
  256
370
   -1
100
AcDbCircle
 10
211
 20
182
 40
1
  0
CIRCLE
  5
39C
100
AcDbEntity
  8
Korpus
  6
ByLayer
 62
  256
370
   -1
100
AcDbCircle
 10
243
 20
182
 40
1
  0
CIRCLE
  5
39D
100
AcDbEntity
  8
Korpus
  6
ByLayer
 62
  256
370
   -1
100
AcDbCircle
 10
279
 20
182
 40
1
  0
DIMENSION
  5
39E
100
AcDbEntity
  8
Korpus
  6
ByLayer
 62
  256
370
   -1
100
AcDbDimension
  2
*D1
 10
337.598504128
 20
240
 30
0
 11
181.098504128
 21
241.875
 31
0
 70
   32
 71
    5
  3
Standard
 53
0
210
0
220
0
230
1
100
AcDbAlignedDimension
 13
24.598504128
 23
236.105243584
 33
0
 14
337.598504128
 24
236.105243584
 34
0
100
AcDbRotatedDimension
  0
LINE
  5
39F
100
AcDbEntity
  8
Korpus
  6
ByLayer
 62
  256
370
   -1
100
AcDbLine
 10
199.845885056
 20
79.72745776000001
 11
199.845885056
 21
79.72745776000001
  0
LINE
  5
3A0
100
AcDbEntity
  8
Korpus
  6
ByLayer
 62
  256
370
   -1
100
AcDbLine
 10
186.941406
 20
74.94137775999999
 11
186.941406
 21
74.94137775999999
  0
LINE
  5
3A1
100
AcDbEntity
  8
Korpus
  6
ByLayer
 62
  256
370
   -1
100
AcDbLine
 10
186.205086
 20
78.99113776
 11
186.205086
 21
78.99113776
  0
ENDSEC
  0
SECTION
  2
OBJECTS
  0
DICTIONARY
  5
C
330
0
100
AcDbDictionary
281
    1
  3
ACAD_GROUP
350
D
  0
DICTIONARY
  5
D
330
C
100
AcDbDictionary
281
    1
  0
ENDSEC
  0
EOF
